<?xml version="1.0" standalone="no"?>
<!DOCTYPE svg PUBLIC "-//W3C//DTD SVG 1.1//EN" "http://www.w3.org/Graphics/SVG/1.1/DTD/svg11.dtd" >
<svg xmlns="http://www.w3.org/2000/svg">
<metadata>
This is a custom SVG webfont generated by Font Squirrel.
Copyright   : Font designed by Loic Sander 2012 Distributed under the terms of the SIL OFL Licence Free for commercial use This font file can me modified at will under the conditions that any modification made is identified as a modifed version and the author named in the filename or accompanying info No modified version can be distributed without notice that it isnt the original file
Designer    : Loic Sander
Foundry     : Loic Sander
</metadata>
<defs>
<font id="FengardoNeueRegular" horiz-adv-x="1239" >
<font-face units-per-em="2048" ascent="1475" descent="-573" />
<missing-glyph horiz-adv-x="593" />
<glyph unicode=" "  horiz-adv-x="593" />
<glyph unicode="&#x09;" horiz-adv-x="593" />
<glyph unicode="&#xa0;" horiz-adv-x="593" />
<glyph unicode="!" horiz-adv-x="442" d="M92 94q0 55 37 93t90 38q55 0 93 -37.5t38 -93.5q0 -53 -38 -89t-93 -36q-53 0 -90 36t-37 89zM123 1434l199 30l-39 -1106h-123z" />
<glyph unicode="&#x22;" horiz-adv-x="655" d="M96 1415l180 70v-543h-116q-44 272 -64 473zM379 942v473l180 70l-63 -543h-117z" />
<glyph unicode="#" horiz-adv-x="1187" d="M45 375l8 108h266l29 287h-270l6 109h274l37 350h127l-39 -350h277l37 350h125l-37 -350h258l-6 -109h-260l-27 -287h262l-8 -108h-266l-37 -375h-125l37 375h-277l-39 -375h-125l37 375h-264zM446 483h277l27 287h-275z" />
<glyph unicode="$" horiz-adv-x="1134" d="M160 430l153 10q10 -115 90 -170t197 -55q102 0 163.5 48t61.5 140q0 27 -6 49.5t-14 39t-28.5 34t-34 27.5t-47 26.5t-51 24.5t-65 26.5t-69.5 28.5q-166 70 -247 149t-81 226q0 141 92.5 234.5t239.5 111.5v162l143 55v-219q137 -23 222.5 -110.5t76.5 -241.5l-153 -10 q0 106 -62.5 165.5t-165.5 59.5q-92 0 -155.5 -48t-63.5 -144q0 -41 18.5 -76t41 -56.5t69.5 -48t73 -37t85 -34.5q197 -80 276.5 -160t79.5 -221q0 -145 -95 -233.5t-236 -106.5v-154l-144 -55v209q-158 18 -260 109t-104 245z" />
<glyph unicode="%" horiz-adv-x="1794" d="M147 1171.5q0 131.5 85 212t218.5 80.5t218.5 -80.5t85 -212.5q0 -129 -88 -210.5t-215 -81.5q-133 0 -218.5 80.5t-85.5 212zM303 0l1016 1434h164l-1014 -1434h-166zM303 1171.5q0 -79.5 41 -123.5t106.5 -44t107.5 44t42 123.5t-41 124.5t-108 45q-66 0 -107 -45 t-41 -124.5zM1040 262q0 131 85 212t218.5 81t218.5 -81t85 -212q0 -129 -88.5 -211t-215.5 -82q-133 0 -218 81t-85 212zM1196 262q0 -80 41 -124t106.5 -44t107.5 44t42 124t-41 125t-109 45q-66 0 -106.5 -45t-40.5 -125z" />
<glyph unicode="&#x26;" horiz-adv-x="1376" d="M133 416q0 147 83 241.5t208 137.5q-94 27 -156.5 109.5t-62.5 199.5q0 154 113.5 257t308.5 103q178 0 287.5 -105.5t97.5 -273.5l-164 -10q0 109 -61.5 172.5t-163.5 63.5q-109 0 -171.5 -53.5t-62.5 -153.5q0 -227 242 -240h43v-143h-45q-139 0 -225.5 -89t-86.5 -216 q0 -139 92.5 -216t241.5 -77q178 0 268.5 116.5t90.5 315.5v166h-164v143h500v-143h-177q4 -66 5 -166q0 -246 -136.5 -416t-386.5 -170q-231 0 -374.5 122t-143.5 325z" />
<glyph unicode="'" horiz-adv-x="374" d="M96 1415l183 70l-39 -543h-117q-25 344 -27 473z" />
<glyph unicode="(" horiz-adv-x="712" d="M147 602q0 240 84 486.5t244 451.5l111 -65q-129 -170 -207 -398.5t-78 -470.5q0 -236 77 -452.5t206 -389.5l-109 -75q-156 188 -242 427.5t-86 485.5z" />
<glyph unicode=")" horiz-adv-x="712" d="M139 1475l111 65q160 -205 244 -451.5t84 -486.5q0 -246 -86 -485.5t-242 -427.5l-109 75q129 172 206 389.5t77 452.5q0 242 -78 470.5t-207 398.5z" />
<glyph unicode="*" horiz-adv-x="819" d="M59 1161l43 123l252 -100q-14 205 -14 280l143 9l-20 -291q154 66 254 102l43 -123q-16 -4 -68.5 -20.5t-103.5 -31.5t-90 -24l190 -235l-110 -74q-135 193 -172 254q-27 -45 -91.5 -141t-74.5 -113l-109 74q55 74 188 235q-39 8 -89 23.5t-101.5 31t-69.5 21.5z" />
<glyph unicode="+" horiz-adv-x="1163" d="M76 461v153h411v473h164v-473h436v-153h-436v-457h-164v457h-411z" />
<glyph unicode="," horiz-adv-x="438" d="M-6 -242q61 16 106 45t67.5 56.5t36 53.5t15.5 42l2 16q-45 -6 -89 25t-44 102q0 55 39 91t90 36q66 0 105.5 -44t39.5 -122q0 -137 -91 -243.5t-228 -130.5z" />
<glyph unicode="-" horiz-adv-x="694" d="M76 461v153h542v-153h-542z" />
<glyph unicode="." horiz-adv-x="458" d="M96 100q0 57 37 96.5t94.5 39.5t96 -39t38.5 -97q0 -55 -38.5 -93t-96 -38t-94.5 38t-37 93z" />
<glyph unicode="/" horiz-adv-x="813" d="M-27 -287l719 1823h148l-713 -1823h-154z" />
<glyph unicode="0" horiz-adv-x="1124" d="M123 387q-8 174 0 340q10 190 132 300t308 110q184 0 306 -109.5t132 -300.5q8 -166 0 -340q-8 -195 -127.5 -306.5t-310 -111.5t-311.5 111.5t-129 306.5zM307 385q4 -121 78 -191.5t178.5 -70.5t177 70.5t76.5 191.5q6 180 0 342q-4 125 -75.5 190.5t-178 65.5 t-179.5 -65.5t-77 -190.5q-6 -162 0 -342z" />
<glyph unicode="1" horiz-adv-x="811" d="M137 1034l322 82l63 -8v-969l193 -6v-133h-574v133l197 6v793l-184 -6z" />
<glyph unicode="2" horiz-adv-x="1028" d="M109 109q20 16 122.5 93t162 128t140 130t120.5 154.5t40 147.5q0 221 -194 221q-94 0 -157.5 -61.5t-70.5 -176.5l-163 -10q-12 178 109.5 290t289.5 112q170 0 270.5 -95.5t100.5 -255.5q0 -168 -149.5 -334.5t-360.5 -297.5h573v-154h-813z" />
<glyph unicode="3" horiz-adv-x="1046" d="M55 41l164 10q16 -109 91 -167t188 -58q121 0 199.5 72.5t78.5 218.5q0 139 -79 210.5t-203 71.5l-117 -12l-31 94l373 471h-606v154h796l21 -123l-383 -461q2 0 10 1t12 1q164 0 278 -99t114 -304q0 -211 -132.5 -330t-330.5 -119q-184 0 -305.5 102.5t-137.5 266.5z " />
<glyph unicode="4" horiz-adv-x="1189" d="M127 123l410 1032l194 45l-416 -1046h404v450l174 72v-522h231v-144h-231v-317h-174v317h-567z" />
<glyph unicode="5" horiz-adv-x="1062" d="M55 41l164 10q16 -109 91 -167t192 -58q119 0 189.5 78t70.5 227q0 299 -258 299q-147 -4 -219 -84l-150 10l80 750h664v-154h-510l-58 -458q98 80 246 79q162 0 275.5 -110.5t113.5 -331.5q0 -209 -126 -334t-318 -125q-180 0 -309.5 102.5t-137.5 266.5z" />
<glyph unicode="6" horiz-adv-x="1144" d="M133 461q-12 274 0 514q10 205 132 332t329 127q166 0 277.5 -98.5t105.5 -280.5l-164 -11q-2 109 -59.5 172.5t-169.5 63.5q-127 0 -197 -78t-76 -227q-6 -162 -4 -322q41 92 128 149.5t198 57.5q170 0 287.5 -106.5t117.5 -321.5q0 -213 -120.5 -338t-317.5 -125 q-205 0 -331 133.5t-136 358.5zM313 422q12 -139 86 -219t201 -80q119 0 186.5 80t67.5 229q0 145 -72.5 215t-183.5 70q-117 0 -202 -82t-83 -213z" />
<glyph unicode="7" horiz-adv-x="974" d="M25 952v154h864l31 -121l-590 -1292h-195l588 1259h-698z" />
<glyph unicode="8" horiz-adv-x="1185" d="M127 383q0 117 68.5 213t179.5 133q-215 100 -215 305q0 190 127 295t307 105t306 -104.5t126 -295.5q0 -205 -215 -305q111 -37 179.5 -133t68.5 -213q0 -180 -127 -297t-338 -117t-339 117t-128 297zM311 383q0 -113 77 -186.5t206 -73.5t204.5 73.5t75.5 186.5 t-73.5 187.5t-206.5 74.5t-208 -74.5t-75 -187.5zM344 1036q0 -106 66.5 -177t183.5 -71t182.5 71t65.5 177q0 104 -66.5 174t-181.5 70t-182.5 -70t-67.5 -174z" />
<glyph unicode="9" horiz-adv-x="1144" d="M106 676q0 209 128 335t321 126t321 -126t136 -366q10 -317 0 -504q-12 -231 -136 -350t-317 -119q-176 0 -307 100.5t-135 268.5l164 10q41 -225 278 -225q256 0 275 315q4 80 4 273q-39 -88 -124 -136.5t-194 -48.5q-168 0 -291 116t-123 331zM291 676 q0 -145 76.5 -219t187.5 -74q125 0 199.5 74.5t79.5 185.5v23q-6 156 -83 236.5t-196 80.5q-115 0 -189.5 -82t-74.5 -225z" />
<glyph unicode=":" horiz-adv-x="450" d="M90 100q0 57 37 96.5t94.5 39.5t96 -39t38.5 -97q0 -55 -38.5 -93t-96 -38t-94.5 38t-37 93zM90 766q0 57 37 96t94.5 39t96 -39t38.5 -96q0 -55 -38.5 -93t-96 -38t-94.5 38t-37 93z" />
<glyph unicode=";" horiz-adv-x="452" d="M-6 -242q61 16 106 45t67.5 56.5t36 53.5t15.5 42l2 16q-45 -6 -89 25t-44 102q0 55 39 91t90 36q66 0 105.5 -44t39.5 -122q0 -137 -91 -243.5t-228 -130.5zM88 766q0 57 37 96t94 39t96 -39t39 -96q0 -55 -39 -93t-96 -38t-94 38t-37 93z" />
<glyph unicode="&#x3c;" horiz-adv-x="1030" d="M137 477v49l715 508l70 -110l-580 -400v-20l582 -412l-74 -110z" />
<glyph unicode="=" horiz-adv-x="1103" d="M96 252v154h912v-154h-912zM96 682v154h912v-154h-912z" />
<glyph unicode="&#x3e;" horiz-adv-x="1030" d="M127 92l582 397v19l-580 416l80 110l704 -508v-49l-712 -495z" />
<glyph unicode="?" horiz-adv-x="909" d="M68 1044q-14 180 100.5 300t300.5 120q152 0 258.5 -100t106.5 -256q0 -109 -50.5 -197t-152.5 -202q-78 -88 -95.5 -136.5t-17.5 -142.5v-72h-141l-4 58q-8 137 15.5 207.5t113.5 181.5q100 121 123 172q25 57 24 123q0 98 -51 154.5t-135 56.5q-106 0 -166.5 -67.5 t-65.5 -188.5zM322 94q0 55 36.5 93t90.5 38q55 0 93 -37.5t38 -93.5q0 -53 -38 -89t-93 -36q-53 0 -90 36t-37 89z" />
<glyph unicode="@" horiz-adv-x="1961" d="M147 471q0 418 255 705.5t649 287.5q356 0 554.5 -215t198.5 -553q0 -313 -131 -484t-315 -171q-117 0 -194 56.5t-91 166.5q-2 -6 -8 -17t-28.5 -39t-48 -49.5t-70 -39t-93.5 -17.5q-121 0 -189.5 92.5t-47.5 276.5q10 96 49 256q84 348 405 348q160 0 301 -88 l-114 -635q-31 -178 129 -178q123 0 208 136t85 388q0 279 -145.5 456t-454.5 177q-313 0 -531.5 -244.5t-218.5 -615.5q0 -180 55.5 -316.5t153.5 -215t218 -117.5t261 -39q109 0 202 20.5t132 40.5l39 23l47 -103q-12 -12 -40 -31.5t-136.5 -51t-243.5 -31.5 q-373 0 -607.5 205.5t-234.5 615.5zM752 471q-12 -127 18.5 -181t110.5 -54q78 0 129 49t63 112l98 516q-43 29 -133 29q-188 0 -237 -215q-41 -170 -49 -256z" />
<glyph unicode="A" d="M31 0l487 1380l-16 54h205l501 -1434h-194l-129 389h-539l-131 -389h-184zM397 543h439l-172 522l-48 162l-47 -166z" />
<glyph unicode="B" horiz-adv-x="1198" d="M184 0v1434q223 2 394 2q487 0 487 -346q0 -121 -76 -212.5t-198 -125.5v-2q135 -31 220 -117t85 -225q0 -197 -136.5 -304.5t-400.5 -107.5zM369 154q86 -4 188 -4q174 0 264 51t90 198q0 268 -352 269h-190v-514zM369 811h182q170 0 250 47t80 197q0 123 -74 175 t-223 52l-215 -2v-469z" />
<glyph unicode="C" horiz-adv-x="1179" d="M139 430q-5 141 -5 281.5t5 279.5q10 213 145.5 343t358.5 130q213 0 333 -116q110 -108 110 -266q0 -14 -1 -27l-163 -11q0 119 -75 193t-208 74q-147 0 -228 -81t-87 -239q-5 -126 -5.5 -265.5t5.5 -293.5q4 -143 91 -226t216 -83q139 0 218 73.5t83 202.5l164 -10v-11 q0 -169 -124 -287q-128 -122 -341 -122q-215 0 -349.5 121t-142.5 340z" />
<glyph unicode="D" horiz-adv-x="1263" d="M184 0v1434q145 10 299 10q606 0 639 -475q7 -109 7 -228t-7 -249q-14 -262 -194 -382t-465 -120zM369 147q57 -4 127 -4q422 0 442 340q7 122 7 241t-7 234q-23 332 -434 332l-135 -4v-1139z" />
<glyph unicode="E" horiz-adv-x="1064" d="M184 0v1434h779v-154h-594v-471h534v-154h-534v-501h594v-154h-779z" />
<glyph unicode="F" horiz-adv-x="960" d="M184 0v1434h766v-154h-581v-512h522v-154h-522v-614h-185z" />
<glyph unicode="G" d="M139 451q-6 114 -6 249t6 291q10 229 150.5 351t353.5 122q207 0 329 -117q112 -109 112 -266q0 -13 -1 -26l-163 -11q0 117 -77 192t-204 75q-143 0 -226 -78t-89 -242q-4 -141 -4.5 -278.5t4.5 -270.5q4 -154 97 -237.5t230 -83.5q150 0 226.5 90t83.5 242q2 34 1 65 q0 47 -4 86h-311v144h486l2 -293q-10 -221 -135.5 -353.5t-354.5 -132.5q-211 0 -352.5 125.5t-153.5 356.5z" />
<glyph unicode="H" horiz-adv-x="1374" d="M184 0v1434h185v-635h637v635h184v-1434h-184v645h-637v-645h-185z" />
<glyph unicode="I" horiz-adv-x="552" d="M184 0v1434h185v-1434h-185z" />
<glyph unicode="J" horiz-adv-x="1060" d="M74 389l162 10q-2 -127 57 -201.5t184 -74.5q221 0 232 276v1035h184q3 -417 3 -675.5t-3 -359.5q-6 -193 -113.5 -311.5t-302.5 -118.5q-193 0 -303 118q-101 108 -101 271q0 15 1 31z" />
<glyph unicode="K" horiz-adv-x="1122" d="M184 0v1434h185v-1434h-185zM379 729l534 705h211l-538 -686q29 -33 152.5 -194t269 -351.5t155.5 -202.5h-215z" />
<glyph unicode="L" horiz-adv-x="960" d="M184 0v1434h185v-1280h581v-154h-766z" />
<glyph unicode="M" horiz-adv-x="1599" d="M184 0v1434h187l364 -701l53 -131l56 131l393 701h178v-1434h-184v993l8 158h-4l-64 -168l-356 -612h-70l-325 612l-70 168h-4l12 -160v-991h-174z" />
<glyph unicode="N" horiz-adv-x="1382" d="M184 0v1434h187l551 -930l102 -228v1158h174v-1434h-184l-559 948l-97 217v-1165h-174z" />
<glyph unicode="O" horiz-adv-x="1269" d="M139 442q-6 142 -6 281t6 274q8 213 143.5 340t352.5 127t351 -127t144 -340q6 -135 6.5 -273.5t-6.5 -281.5q-10 -215 -144 -344t-351 -129t-351.5 129t-144.5 344zM324 444q4 -150 88 -235.5t223 -85.5t223 86t88 235q4 125 4 262.5t-4 287t-87 233.5t-224 84t-224 -84 t-87.5 -233.5t-4 -287t4.5 -262.5z" />
<glyph unicode="P" horiz-adv-x="1136" d="M184 0v1434q180 2 326 2q276 0 425.5 -97.5t149.5 -345.5q0 -217 -140 -340t-415 -123l-161 2v-532h-185zM369 688q82 -2 170 -2q178 0 270 67.5t92 237.5q0 291 -377 291l-155 -2v-592z" />
<glyph unicode="Q" horiz-adv-x="1269" d="M139 442q-6 142 -6 281t6 274q8 213 143.5 340t352.5 127t351 -127t144 -340q6 -135 6.5 -273.5t-6.5 -281.5q-8 -188 -113.5 -312t-279.5 -153q33 -4 217 -59q223 -66 279 -65q35 0 47 2v-103q-35 -47 -111 -47q-90 0 -299 98q-72 35 -150.5 76t-126.5 65.5t-81 37.5 q-166 35 -265.5 156.5t-107.5 303.5zM324 444q4 -150 88 -235.5t223 -85.5t223 86t88 235q4 125 4 262.5t-4 287t-87 233.5t-224 84t-224 -84t-87.5 -233.5t-4 -287t4.5 -262.5z" />
<glyph unicode="R" horiz-adv-x="1208" d="M184 0v1434q205 2 365 2q254 0 395 -91.5t141 -310.5q0 -78 -27.5 -144.5t-65.5 -106.5t-86 -69.5t-81.5 -43t-58.5 -17.5v-4q33 -6 100 -123l301 -526h-202l-342 610h-254v-610h-185zM369 754q55 -2 133 -2q76 0 125 3t106.5 19.5t90 44t55 80.5t22.5 129 q0 254 -350 254l-182 -2v-526z" />
<glyph unicode="S" horiz-adv-x="1148" d="M113 391l163 10q16 -123 103.5 -200.5t214.5 -77.5q121 0 194.5 56.5t73.5 160.5q0 43 -10 79t-38 65.5t-47 48t-68.5 43t-70 33.5t-79.5 34q-92 39 -145.5 66.5t-119 77t-96 118t-30.5 158.5q0 174 124 287.5t308 113.5q199 0 316 -108q103 -95 104 -254q0 -22 -2 -45 l-164 -10q0 264 -254 264q-109 0 -178.5 -57.5t-69.5 -161.5q0 -109 67.5 -167.5t215.5 -121.5q66 -27 86 -36t79.5 -39t83 -48t65.5 -54t59.5 -70t33 -81t15.5 -100q0 -182 -131.5 -294t-328 -112t-329.5 110.5t-145 311.5z" />
<glyph unicode="T" horiz-adv-x="1036" d="M20 1280v154h996v-154h-406v-1280h-184v1280h-406z" />
<glyph unicode="U" horiz-adv-x="1320" d="M176 455v979h184q-1 -398 -1 -643t1 -336q2 -160 81 -246t220.5 -86t219 86t80.5 246v979h184q1 -373 1 -618t-1 -361q-2 -229 -135 -357.5t-348.5 -128.5t-349.5 128.5t-136 357.5z" />
<glyph unicode="V" horiz-adv-x="1128" d="M10 1434h201l360 -1223l349 1223h198l-452 -1434h-201z" />
<glyph unicode="W" horiz-adv-x="1771" d="M51 1434h189l231 -942l47 -261h6l45 261l234 942h176l244 -942l47 -261h6l45 261l221 942h178l-362 -1434h-191l-245 973l-33 217h-6l-39 -217l-238 -973h-192z" />
<glyph unicode="X" horiz-adv-x="1142" d="M31 1434h213l334 -572l311 572h201l-408 -686l461 -748h-215l-359 621l-336 -621h-198l422 737z" />
<glyph unicode="Y" horiz-adv-x="1046" d="M-41 1434h201l332 -635l30 -76l31 76l326 635h198l-467 -859v-575h-184v575z" />
<glyph unicode="Z" horiz-adv-x="1138" d="M82 86l704 1194h-704v154h915q10 -25 21 -86l-705 -1194h723v-154h-934q-10 37 -20 86z" />
<glyph unicode="[" horiz-adv-x="608" d="M147 -287v1823h345v-123h-201v-1577h201v-123h-345z" />
<glyph unicode="\" horiz-adv-x="792" d="M-27 1536h150l696 -1823h-151z" />
<glyph unicode="]" horiz-adv-x="608" d="M129 -164h201v1577h-201v123h344v-1823h-344v123z" />
<glyph unicode="^" horiz-adv-x="1026" d="M96 932l361 502h108l365 -502h-164l-256 354l-254 -354h-160z" />
<glyph unicode="_" horiz-adv-x="923" d="M-6 -82h936v-154h-936v154z" />
<glyph unicode="`" horiz-adv-x="796" d="M96 1434h205l225 -297h-161z" />
<glyph unicode="a" horiz-adv-x="1005" d="M106 254q0 100 43.5 146t161.5 81q57 16 140.5 37t138.5 34t53 11v99q0 111 -37 165t-129 54q-86 0 -135 -47.5t-49 -126.5l-154 -13q-2 20 -2 39q0 121 90 200q104 91 260 91q158 0 244 -88t86 -264v-436q0 -72 30 -92.5t103 -20.5v-123q-18 -10 -58 -15q-22 -3 -47 -3 q-20 0 -40 2q-47 4 -87 39.5t-52 99.5h-7q-92 -154 -272 -154q-119 0 -200 78t-81 207zM281 274q0 -80 46 -126t122 -46q88 0 141 65.5t53 164.5v131q-174 -41 -262 -70q-59 -20 -79.5 -46t-20.5 -73z" />
<glyph unicode="b" horiz-adv-x="1081" d="M168 68v1396l174 72v-676h2q41 68 119 116t174 48q139 0 228 -89t96 -253q3 -87 3 -172.5t-3 -169.5q-4 -164 -121 -267.5t-281 -103.5q-92 0 -204.5 27t-186.5 72zM342 147q82 -35 201 -34q106 0 172.5 56t70.5 171q3 71 3.5 156t-3.5 184q-2 98 -59 149.5t-139 51.5 q-98 0 -172 -63.5t-74 -135.5v-535z" />
<glyph unicode="c" horiz-adv-x="921" d="M121 328q-3 87 -3 169t3 158q6 176 111.5 272.5t271.5 96.5t260 -84q90 -80 90 -212v-11l-154 -10q-4 88 -59 131t-137 43q-92 0 -148.5 -58.5t-60.5 -167.5q-3 -80 -3 -154t3 -143q8 -246 217 -245q88 0 137 51t62 133l143 -10v-16q0 -119 -86 -208q-92 -94 -256 -94 q-172 0 -279.5 92.5t-111.5 266.5z" />
<glyph unicode="d" horiz-adv-x="1114" d="M121 647q6 195 107.5 286t246.5 91q186 0 266 -154v594l174 72v-1300q0 -72 30 -92.5t104 -20.5v-123q-25 -10 -63 -14q-15 -2 -32 -2q-25 0 -52 4q-46 6 -86 40.5t-54 94.5h-4q-92 -154 -301 -154q-133 0 -229.5 87t-104.5 255q-5 92 -5 189q0 72 3 147zM295 637 q0 -268 2 -307q12 -217 207 -217q238 0 237 231v268q0 129 -65.5 199t-171.5 70q-94 0 -151.5 -64.5t-57.5 -179.5z" />
<glyph unicode="e" horiz-adv-x="966" d="M121 338q-3 92 -3 168.5t3 136.5q8 166 110.5 273.5t280.5 107.5q162 0 255 -92t93 -246q0 -98 -31.5 -130t-148.5 -56l-387 -66v-65q0 -123 59.5 -189.5t159.5 -66.5q90 0 140 51t63 133l143 -10v-16q0 -119 -88 -208q-94 -94 -258 -94q-178 0 -282.5 100.5 t-108.5 268.5zM293 547q147 18 289 49q66 14 85 32.5t19 61.5q0 88 -46 139.5t-128 51.5q-111 0 -165 -73t-54 -198v-63z" />
<glyph unicode="f" horiz-adv-x="608" d="M35 870v123h143v158q0 190 88 287.5t230 97.5q121 0 200 -72l-55 -116q-51 35 -135 34q-80 0 -117 -55t-37 -186v-148h246v-123h-246v-870h-174v870h-143z" />
<glyph unicode="g" horiz-adv-x="1073" d="M86 -240q0 129 111 172l98 31l158 29v6l-97 12q-203 27 -202 172q0 70 47 117t108 66q-152 98 -151 297q0 158 107.5 260t273.5 102q94 0 194 -31h293q2 -16 2 -65t-2 -68q-74 0 -141.5 9.5t-98.5 19.5l-30 8l-2 -4q160 -82 159 -242q0 -156 -106.5 -252t-271.5 -96 q-80 0 -148 25q-80 -29 -80 -95q0 -59 74 -73q37 -6 175 -27.5t202 -34.5q256 -53 256 -278q0 -143 -124 -247.5t-343 -104.5q-197 0 -329 81.5t-132 210.5zM260 -213q0 -82 85 -129t202 -47q133 0 213 50t80 151q0 125 -170 153l-76 12q-180 -47 -252 -83 q-43 -23 -62.5 -43.5t-19.5 -63.5zM332 662q0 -100 52 -158t155 -58q92 0 146 55.5t54 160.5q0 102 -52 165.5t-148 63.5q-88 0 -147.5 -62.5t-59.5 -166.5z" />
<glyph unicode="h" horiz-adv-x="1101" d="M178 0v1464l174 72v-684h2q45 78 124 125t179 47q145 0 231.5 -89t86.5 -247v-688h-174v668q0 213 -197 213q-106 0 -177 -65.5t-75 -139.5v-676h-174z" />
<glyph unicode="i" horiz-adv-x="499" d="M106 1345.5q0 51.5 33 85t82 33.5q51 0 86 -33.5t35 -85t-34 -84t-87 -32.5q-49 0 -82 32.5t-33 84zM137 197v745l174 72v-756q0 -76 30 -105.5t103 -29.5v-123q-54 -15 -102 -15q-62 0 -114 25q-91 46 -91 187z" />
<glyph unicode="j" horiz-adv-x="499" d="M14 -391q98 2 131 25.5t33 99.5v1208l174 72v-1311q0 -133 -94 -195q-58 -38 -136 -37q-50 0 -108 15v123zM147 1345.5q0 51.5 33 85t82 33.5q51 0 86 -33.5t35 -85t-34 -84t-87 -32.5q-49 0 -82 32.5t-33 84z" />
<glyph unicode="k" horiz-adv-x="1005" d="M168 0v1466l174 70v-1536h-174zM373 575v7l305 352q63 70 149 70q45 0 91 -21v-113q-8 1 -16 1q-77 0 -134 -58q-27 -27 -78 -85t-88 -101l-37 -45q199 -309 252 -379q37 -47 66.5 -63.5t87.5 -16.5v-123q-29 -16 -92 -16q-66 0 -113 33.5t-109 117.5q-63 86 -284 440z " />
<glyph unicode="l" horiz-adv-x="520" d="M147 195v1269l175 72v-1280q0 -76 29.5 -104.5t103.5 -28.5v-123q-52 -15 -100 -15q-60 0 -113 24q-95 45 -95 186z" />
<glyph unicode="m" horiz-adv-x="1630" d="M66 870v113q47 20 100 21q70 0 120 -37t62 -111h2q41 80 119 124t164 44q96 0 164.5 -47t93.5 -139h4q39 82 121 134t186 52q127 0 209 -85t82 -237v-702h-174v668q0 213 -170 213q-98 0 -159.5 -68t-61.5 -170v-643h-174v666q0 215 -170 215q-96 0 -159 -68t-63 -172 v-641h-174v776q0 57 -28 75.5t-94 18.5z" />
<glyph unicode="n" horiz-adv-x="1101" d="M66 870v113q47 20 100 21q70 0 120 -37t62 -111h2q102 168 309 168q139 0 222.5 -90t83.5 -246v-688h-174v668q0 213 -189 213q-100 0 -170 -66.5t-70 -134.5v-680h-174v776q0 57 -28 75.5t-94 18.5z" />
<glyph unicode="o" horiz-adv-x="1034" d="M123 338q-3 89 -3 169.5t3 151.5q8 164 115.5 264.5t279.5 100.5t278.5 -100.5t114.5 -264.5q4 -75 4 -155t-4 -166q-8 -164 -116.5 -266.5t-276.5 -102.5q-170 0 -279.5 102.5t-115.5 266.5zM297 344q4 -102 64.5 -166.5t156.5 -64.5q94 0 154.5 64.5t64.5 164.5 q3 73 3 151t-3 162q-4 100 -62.5 163t-156.5 63t-157.5 -61.5t-63.5 -164.5q-3 -85 -3 -162.5t3 -148.5z" />
<glyph unicode="p" horiz-adv-x="1091" d="M55 870v113q47 20 101 21q70 0 120 -37t62 -111h2q45 76 124 122t185 46q143 0 230.5 -94t91.5 -254q2 -80 2 -164t-2 -172q-6 -172 -98.5 -271.5t-233.5 -99.5q-195 0 -285 144h-2v-625h-174v1288q0 57 -28.5 75.5t-94.5 18.5zM352 344q0 -119 67.5 -175t180.5 -56 q86 0 138.5 56t58.5 163q4 86 4 172.5t-4 173.5q-10 203 -211 203q-86 0 -160 -62.5t-74 -136.5v-338z" />
<glyph unicode="q" horiz-adv-x="1060" d="M121 317q-2 75 -2 153t2 159q6 188 125 291.5t303 103.5q197 0 364 -82v-1454h-174v637h-2q-94 -156 -280 -156q-143 0 -236.5 99t-99.5 249zM295 338q2 -111 61.5 -168t155.5 -57q104 0 165.5 65.5t61.5 186.5v481q-84 35 -190.5 35t-178 -68t-75.5 -203 q-2 -68 -2 -135.5t2 -136.5z" />
<glyph unicode="r" horiz-adv-x="700" d="M66 870v113q47 20 100 21q70 0 121 -37t63 -111h4q45 168 217 168q37 0 67 -13.5t38 -27.5l-27 -123h-106q-102 0 -140 -62.5t-41 -209.5v-588h-174v776q0 57 -28 75.5t-94 18.5z" />
<glyph unicode="s" horiz-adv-x="907" d="M106 287l154 10q10 -80 65.5 -132t145.5 -52q74 0 120 34.5t46 98.5q0 61 -51 98t-168 78q-135 45 -210 112.5t-75 190.5q0 133 96.5 216t241.5 83q154 0 241 -92q73 -78 73 -180q0 -19 -3 -39l-153 -11q0 84 -44 131.5t-120 47.5q-68 0 -113 -38t-45 -100 q0 -45 29 -78.5t63.5 -51t98.5 -42.5q55 -20 76.5 -29.5t68.5 -32t68.5 -43t49 -51t39 -69.5t11.5 -86q0 -125 -93 -208t-247 -83q-162 0 -262.5 91.5t-102.5 226.5z" />
<glyph unicode="t" horiz-adv-x="681" d="M45 870v123h143v215l174 72v-287h275v-123h-275v-587q0 -102 45.5 -136t124.5 -34l127 10l9 -123q-76 -31 -195 -31q-123 0 -204 74t-81 231v596h-143z" />
<glyph unicode="u" horiz-adv-x="1067" d="M127 303v639l174 72v-678q0 -223 186 -223q102 0 160 58t58 134v637l174 72v-778q0 -72 29.5 -92.5t103.5 -20.5v-123q-25 -10 -63 -14q-15 -2 -31 -2q-25 0 -53 4q-46 6 -86 40.5t-54 94.5h-4q-86 -154 -281 -154q-141 0 -227 87t-86 247z" />
<glyph unicode="v" horiz-adv-x="862" d="M14 993h185l196 -657l35 -158h2l39 158l203 657h174l-334 -993h-176z" />
<glyph unicode="w" horiz-adv-x="1396" d="M25 993h184l168 -665l29 -140h4l24 140l197 665h147l191 -665l24 -140h4l25 140l178 665h172l-299 -993h-172l-164 578l-37 188h-6l-37 -188l-170 -578h-168z" />
<glyph unicode="x" horiz-adv-x="905" d="M35 0l325 520l-305 473h195l225 -352l211 352h184l-309 -485l330 -508h-195l-247 383l-230 -383h-184z" />
<glyph unicode="y" horiz-adv-x="860" d="M14 993h183l202 -622l31 -125h2l31 123l205 624h178q-4 -10 -72.5 -199.5t-149.5 -409.5t-178.5 -481t-158.5 -417h-166l221 565z" />
<glyph unicode="z" horiz-adv-x="876" d="M86 102l481 748h-473v143h678l10 -102l-487 -748h516v-143h-715z" />
<glyph unicode="{" horiz-adv-x="739" d="M158 571v103q168 51 168 213v430q0 125 100 182t217 25v-113q-70 10 -122 -12.5t-52 -91.5v-420q0 -94 -50 -171t-147 -89q102 -16 149.5 -75.5t47.5 -168.5v-438q0 -70 52 -92.5t122 -12.5v-112q-117 -33 -217 24.5t-100 181.5v449q0 88 -46 130t-122 58z" />
<glyph unicode="|" horiz-adv-x="520" d="M188 -512v2048h144v-2048h-144z" />
<glyph unicode="}" horiz-adv-x="739" d="M109 -160q70 -10 122 12.5t52 92.5v438q0 109 47 168t149 76q-96 12 -146 89t-50 171v420q0 70 -52.5 92t-121.5 12v113q117 33 217 -24.5t100 -182.5v-430q0 -162 168 -213v-103q-76 -16 -122 -58t-46 -130v-449q0 -125 -100.5 -182t-216.5 -24v112z" />
<glyph unicode="~" horiz-adv-x="980" d="M150 422q-8 96 43 163.5t143 67.5q59 0 162.5 -45t152.5 -45q61 0 62 99h118q10 -106 -33.5 -174t-140.5 -68q-55 0 -168.5 45t-146.5 45q-68 0 -68 -88h-124z" />
<glyph unicode="&#xa1;" horiz-adv-x="442" d="M92 899q0 53 38 89t93 36q53 0 90 -36t37 -89q0 -55 -37 -93t-90 -38q-55 0 -93 38t-38 93zM121 -471l39 1106h123l36 -1075z" />
<glyph unicode="&#xa2;" horiz-adv-x="921" d="M121 328q-6 174 0 327q4 160 93 254.5t235 110.5v158l110 61v-219q141 -14 220 -95t75 -208l-154 -10q-4 88 -59 131t-137 43q-92 0 -148.5 -58.5t-60.5 -167.5q-6 -160 0 -297q8 -246 217 -245q88 0 137 51t62 133l143 -10q4 -119 -74 -210t-221 -106v-155l-110 -52v209 q-147 16 -236.5 106.5t-91.5 248.5z" />
<glyph unicode="&#xa3;" horiz-adv-x="1216" d="M106 625l21 133h152q-8 145 -9 286q0 193 116 306.5t288 113.5q186 0 290.5 -104.5t92.5 -294.5l-164 -10q0 256 -219 256q-100 0 -159.5 -63.5t-59.5 -192.5q0 -80 8 -297h307l-20 -133h-281q0 -20 3 -113.5t3 -136.5q0 -104 -58.5 -169t-119.5 -89q117 37 215 37h588 l-21 -154h-952l-16 102q8 2 19 7.5t43 26t55.5 46t43 74.5t19.5 106q0 37 -1 80t-3 97.5t-2 85.5h-179z" />
<glyph unicode="&#xa5;" horiz-adv-x="1146" d="M14 1434h201l365 -648l354 648h199l-465 -803h329v-133h-331v-133h331v-134h-331v-231h-185v231h-313v134h313v133h-313v133h311z" />
<glyph unicode="&#xa6;" horiz-adv-x="520" d="M188 328h144v-840h-144v840zM188 809v727h144v-727h-144z" />
<glyph unicode="&#xa7;" horiz-adv-x="958" d="M119 113l164 10q0 -84 54 -134t138 -50q78 0 123 40.5t45 112.5q0 61 -54 104.5t-131 73t-153 64.5t-130 100.5t-54 159.5q0 78 55 134t141 83l97 -53q-45 -6 -82 -42t-37 -106q0 -63 55.5 -109t133 -77t155.5 -66.5t133 -102.5t55 -161q0 -133 -99 -216t-253 -83 q-158 0 -258 91.5t-98 226.5zM162 1165q0 139 101.5 219t240.5 80q145 0 238.5 -88t78.5 -219l-164 -10q0 80 -41 127t-114 47q-68 0 -112 -42t-44 -103q0 -63 53.5 -109.5t129 -77.5t151.5 -65.5t129 -96t53 -149.5q0 -94 -64.5 -156.5t-152.5 -79.5l-96 47q49 6 93 44 t44 104q0 63 -54 108.5t-131 77t-154 68.5t-131 106.5t-54 167.5z" />
<glyph unicode="&#xa8;" horiz-adv-x="913" d="M158 1319q0 49 32.5 82t79.5 33q51 0 84 -33t33 -82t-32.5 -81t-84.5 -32q-47 0 -79.5 32t-32.5 81zM526 1319q0 49 32 82t79 33q51 0 85 -33t34 -82t-34 -81t-85 -32q-47 0 -79 32t-32 81z" />
<glyph unicode="&#xa9;" horiz-adv-x="1726" d="M117 717q0 309 218 528t527 219t528.5 -218t219.5 -529q0 -309 -219.5 -527.5t-528.5 -218.5t-527 218.5t-218 527.5zM236 717q0 -266 182 -454.5t444 -188.5q264 0 445.5 188.5t181.5 454.5q0 268 -181.5 456.5t-445.5 188.5q-262 0 -444 -189.5t-182 -455.5zM551 565 q-8 158 0 295t94 221t217 84q123 0 205 -74.5t74 -189.5l-123 -10q0 72 -42 111.5t-114 39.5q-74 0 -118 -47t-50 -135q-8 -111 0 -287q10 -182 170 -182q72 0 114 44t42 122l123 -10q8 -125 -77 -202t-202 -77q-135 0 -221 79t-92 218z" />
<glyph unicode="&#xaa;" horiz-adv-x="854" d="M137 451v133h580v-133h-580zM143 969q0 125 140 155l215 41v62q0 125 -105 125q-57 0 -85.5 -34t-28.5 -89l-123 -10q-8 100 56 167.5t189 67.5q102 0 166 -61.5t64 -175.5v-250q0 -45 20.5 -60.5t65.5 -15.5v-92q-25 -12 -65 -13.5t-83 21t-57 74.5q-61 -102 -180 -103 q-86 0 -137.5 51.5t-51.5 139.5zM276 973q0 -92 99 -92q123 0 123 141v65q-98 -14 -156 -30q-66 -18 -66 -84z" />
<glyph unicode="&#xab;" horiz-adv-x="1011" d="M86 508v14l383 348l82 -104l-275 -244v-12l277 -264l-90 -103zM500 508v14l383 348l82 -104l-275 -244v-12l277 -264l-90 -103z" />
<glyph unicode="&#xac;" horiz-adv-x="1005" d="M76 461v153h854v-538h-154v385h-700z" />
<glyph unicode="&#xad;" horiz-adv-x="694" d="M76 461v153h542v-153h-542z" />
<glyph unicode="&#xae;" horiz-adv-x="1728" d="M117 717q0 311 218 529t529.5 218t529.5 -218t218 -529t-218 -529.5t-529.5 -218.5t-529.5 218.5t-218 529.5zM236 717q0 -268 181 -456.5t447 -188.5t446.5 188.5t180.5 456.5t-180.5 456.5t-446.5 188.5t-447 -188.5t-181 -456.5zM580 293v864h327q133 0 208 -74.5 t75 -187.5q0 -90 -54.5 -157.5t-134.5 -88.5l29 -33l164 -323h-156l-161 334h-154v-334h-143zM723 739h160q78 0 121 41t43 111q0 143 -164 143h-160v-295z" />
<glyph unicode="&#xaf;" horiz-adv-x="851" d="M147 1290v144h558v-144h-558z" />
<glyph unicode="&#xb0;" horiz-adv-x="798" d="M96 1171.5q0 131.5 85 212t218 80.5t218 -80.5t85 -212.5q0 -129 -88 -210.5t-215 -81.5q-133 0 -218 80.5t-85 212zM252 1171.5q0 -79.5 41 -123.5t106.5 -44t107.5 44t42 123.5t-41 124.5t-109 45q-66 0 -106.5 -45t-40.5 -124.5z" />
<glyph unicode="&#xb1;" horiz-adv-x="1183" d="M147 612v154h361v381h154v-381h374v-154h-374v-387h-154v387h-361zM195 -31v154h778v-154h-778z" />
<glyph unicode="&#xb2;" horiz-adv-x="774" d="M104 899q20 18 69.5 56t91.5 74t85 75q76 68 115 130t39 138q0 70 -34 107t-91 37q-70 0 -111 -43t-39 -121l-123 -11q-12 119 64 203t209 84q123 0 195.5 -69.5t72.5 -184.5q0 -172 -194 -327l-181 -136h416v-112h-573z" />
<glyph unicode="&#xb3;" horiz-adv-x="714" d="M78 1024l123 10q2 -68 46 -105.5t115 -37.5q66 0 105 41t39 110q0 72 -44 109t-108 37q-43 0 -67 -10l-25 69l209 248h-375v113h527l10 -97l-223 -245q92 6 165.5 -50.5t73.5 -168.5q0 -125 -81 -197t-206 -72q-131 0 -208.5 71t-75.5 175z" />
<glyph unicode="&#xb4;" horiz-adv-x="774" d="M250 1137l225 297h205l-270 -297h-160z" />
<glyph unicode="&#xb5;" horiz-adv-x="1067" d="M127 -512v1454l174 72v-695q0 -207 186 -206q100 0 159 67.5t59 145.5v616l174 72v-776q0 -74 29.5 -94.5t103.5 -20.5v-123q-23 -10 -63 -12t-87 5t-89 41t-58 89q-90 -154 -275 -154q-90 0 -139 37v-446z" />
<glyph unicode="&#x3bc;" horiz-adv-x="1067" d="M127 -512v1454l174 72v-695q0 -207 186 -206q100 0 159 67.5t59 145.5v616l174 72v-776q0 -74 29.5 -94.5t103.5 -20.5v-123q-23 -10 -63 -12t-87 5t-89 41t-58 89q-90 -154 -275 -154q-90 0 -139 37v-446z" />
<glyph unicode="&#xb6;" horiz-adv-x="1105" d="M96 696.5q0 139.5 97.5 234.5t273.5 95h51v-661h-51q-176 0 -273.5 96t-97.5 235.5zM530 0v123h142v1106h-142v123h439v-123h-144v-1106h144v-123h-439z" />
<glyph unicode="&#xb7;" horiz-adv-x="450" d="M90 563q0 57 37 96t94.5 39t96 -38.5t38.5 -96.5q0 -55 -38.5 -93t-96 -38t-94.5 38t-37 93z" />
<glyph unicode="&#xb8;" horiz-adv-x="745" d="M186 -285h113q0 -35 20.5 -54t55.5 -19q29 0 48 18t19 55q0 74 -80 74v113q88 8 145.5 -45.5t57.5 -141.5q0 -78 -52 -132t-138 -54q-84 0 -140.5 51t-48.5 135z" />
<glyph unicode="&#xb9;" horiz-adv-x="602" d="M96 799v104l156 10v572l-143 -12l-13 94l236 51l63 -10v-695l152 -10v-104h-451z" />
<glyph unicode="&#xba;" horiz-adv-x="825" d="M139 440v133h547v-133h-547zM141 1022q-4 96 0 190q4 109 76 175.5t197 66.5q123 0 193.5 -66.5t76.5 -175.5q6 -90 0 -190q-6 -109 -79 -176.5t-191 -67.5q-121 0 -195 69t-78 175zM274 1026q4 -68 42 -106.5t98 -38.5q57 0 96 38.5t41 106.5q6 84 0 184q-2 68 -40 105 t-97.5 37t-98.5 -37t-41 -105q-6 -94 0 -184z" />
<glyph unicode="&#xbb;" horiz-adv-x="1011" d="M45 768l90 100l371 -364v-15l-377 -348l-82 103l264 245v15zM465 768l90 100l371 -364v-15l-377 -348l-82 103l264 245v15z" />
<glyph unicode="&#xbc;" horiz-adv-x="1765" d="M147 625v104l156 10v572l-143 -13l-13 95l236 51l63 -10v-695l152 -10v-104h-451zM319 0l1006 1434h154l-1004 -1434h-156zM952 274l375 545l150 -10v-506h141v-113h-141v-190h-134v190h-370zM1096 303h247v369z" />
<glyph unicode="&#xbd;" horiz-adv-x="1843" d="M147 625v104l156 10v572l-143 -13l-13 95l236 51l63 -10v-695l152 -10v-104h-451zM319 0l1006 1434h154l-1004 -1434h-156zM1112 100q20 18 69.5 56.5t91.5 74t85 74.5q76 68 114.5 130.5t38.5 137.5q0 70 -33.5 107t-91.5 37q-70 0 -110.5 -43t-38.5 -121l-123 -10 q-12 119 63.5 202.5t208.5 83.5q123 0 196 -69.5t73 -184.5q0 -172 -195 -327l-180 -135h416v-113h-574z" />
<glyph unicode="&#xbe;" horiz-adv-x="1818" d="M150 850l122 10q2 -68 46 -105.5t116 -37.5q66 0 105 41t39 110q0 72 -44.5 109t-107.5 37q-41 0 -68 -10l-24 69l209 248h-375v113h526l11 -97l-224 -245q92 6 166 -50.5t74 -169.5q0 -125 -81 -196.5t-206 -71.5q-131 0 -208.5 71t-75.5 175zM385 0l1006 1434h153 l-1003 -1434h-156zM1006 274l374 545l150 -10v-506h141v-113h-141v-190h-133v190h-371zM1149 303h248v369z" />
<glyph unicode="&#xbf;" horiz-adv-x="911" d="M92 -115q0 109 50.5 197t152.5 203q78 88 95.5 136t17.5 142v72h141l4 -57q8 -137 -15.5 -208t-113.5 -182q-100 -121 -123 -172q-25 -57 -25 -122q0 -98 51.5 -154.5t135.5 -56.5q106 0 166.5 67.5t64.5 188.5l164 10q14 -180 -100.5 -300t-300.5 -120 q-152 0 -258.5 100t-106.5 256zM346 899q0 53 38 89t93 36q53 0 90 -36t37 -89q0 -55 -37 -93t-90 -38q-55 0 -93 38t-38 93z" />
<glyph unicode="&#xc0;" d="M31 0l487 1380l-16 54h205l501 -1434h-194l-129 389h-539l-131 -389h-184zM274 1802h185l205 -266h-158zM397 543h439l-172 522l-48 162l-47 -166z" />
<glyph unicode="&#xc1;" d="M31 0l487 1380l-16 54h205l501 -1434h-194l-129 389h-539l-131 -389h-184zM397 543h439l-172 522l-48 162l-47 -166zM569 1536l189 266h184l-223 -266h-150z" />
<glyph unicode="&#xc2;" d="M31 0l487 1380l-16 54h205l501 -1434h-194l-129 389h-539l-131 -389h-184zM348 1536l236 266h88l231 -266h-155l-125 141l-127 -141h-148zM397 543h439l-172 522l-48 162l-47 -166z" />
<glyph unicode="&#xc3;" d="M31 0l487 1380l-16 54h205l501 -1434h-194l-129 389h-539l-131 -389h-184zM348 1556q-8 90 32 147.5t120 57.5q49 0 133 -43t98 -43q47 0 47 88h109q20 -207 -154 -207q-45 0 -123 40t-96 40q-51 0 -51 -80h-115zM397 543h439l-172 522l-48 162l-47 -166z" />
<glyph unicode="&#xc4;" d="M31 0l487 1380l-16 54h205l501 -1434h-194l-129 389h-539l-131 -389h-184zM326 1642.5q0 49.5 32.5 82t79.5 32.5q51 0 84 -32.5t33 -82t-33 -81t-84 -31.5q-47 0 -79.5 31.5t-32.5 81zM397 543h439l-172 522l-48 162l-47 -166zM694 1642.5q0 49.5 32 82t79 32.5 q51 0 85 -32.5t34 -82t-34 -81t-85 -31.5q-47 0 -79 31.5t-32 81z" />
<glyph unicode="&#xc5;" d="M31 0l487 1380l-16 54h205l501 -1434h-194l-129 389h-539l-131 -389h-184zM397 543h439l-172 522l-48 162l-47 -166zM432 1689.5q0 79.5 55.5 130t126.5 50.5q70 0 125.5 -50.5t57.5 -130t-53.5 -132t-129 -52.5t-128 52.5t-54.5 132zM532 1692q0 -43 24 -69t58.5 -26 t58 27t23.5 68q0 35 -23.5 60.5t-58.5 25.5q-33 0 -57.5 -24.5t-24.5 -61.5z" />
<glyph unicode="&#xc6;" horiz-adv-x="1652" d="M-20 0l753 1434h828v-154h-521v-471h461v-154h-461v-501h521v-154h-705v512h-424l-262 -512h-190zM512 666h344v671z" />
<glyph unicode="&#xc7;" horiz-adv-x="1179" d="M139 430q-10 283 0 561q10 213 145.5 343t358.5 130q213 0 333 -116.5t109 -292.5l-163 -11q0 119 -75 193t-208 74q-147 0 -228 -81t-87 -239q-10 -252 0 -559q4 -143 91 -226t216 -83q139 0 218 73.5t83 202.5l164 -10q4 -176 -124 -298t-341 -122q-215 0 -349.5 121 t-142.5 340zM416 -326h112q0 -35 20.5 -54t55.5 -19q29 0 48.5 18.5t19.5 54.5q0 74 -80 74v113q88 8 145.5 -45.5t57.5 -141.5q0 -78 -52.5 -132t-138.5 -54q-84 0 -140 51t-48 135z" />
<glyph unicode="&#xc8;" horiz-adv-x="1064" d="M184 0v1434h779v-154h-594v-471h534v-154h-534v-501h594v-154h-779zM262 1802h184l205 -266h-157z" />
<glyph unicode="&#xc9;" horiz-adv-x="1064" d="M184 0v1434h779v-154h-594v-471h534v-154h-534v-501h594v-154h-779zM471 1536l188 266h185l-223 -266h-150z" />
<glyph unicode="&#xca;" horiz-adv-x="1064" d="M184 0v1434h779v-154h-594v-471h534v-154h-534v-501h594v-154h-779zM305 1536l236 266h88l231 -266h-155l-125 141l-127 -141h-148z" />
<glyph unicode="&#xcb;" horiz-adv-x="1064" d="M184 0v1434h779v-154h-594v-471h534v-154h-534v-501h594v-154h-779zM281 1642.5q0 49.5 32.5 82t79.5 32.5q51 0 84 -32.5t33 -82t-33 -81t-84 -31.5q-47 0 -79.5 31.5t-32.5 81zM649 1642.5q0 49.5 32 82t79 32.5q51 0 85 -32.5t34 -82t-34 -81t-85 -31.5 q-47 0 -79 31.5t-32 81z" />
<glyph unicode="&#xcc;" horiz-adv-x="552" d="M-25 1802h185l205 -266h-158zM184 0v1434h185v-1434h-185z" />
<glyph unicode="&#xcd;" horiz-adv-x="552" d="M184 0v1434h185v-1434h-185zM213 1536l188 266h185l-224 -266h-149z" />
<glyph unicode="&#xce;" horiz-adv-x="552" d="M0 1536l236 266h88l231 -266h-156l-125 141l-127 -141h-147zM184 0v1434h185v-1434h-185z" />
<glyph unicode="&#xcf;" horiz-adv-x="552" d="M-12 1642.5q0 49.5 32.5 82t79.5 32.5q51 0 84 -32.5t33 -82t-32.5 -81t-84.5 -31.5q-47 0 -79.5 31.5t-32.5 81zM184 0v1434h185v-1434h-185zM356 1642.5q0 49.5 32 82t79 32.5q51 0 85 -32.5t34 -82t-34 -81t-85 -31.5q-47 0 -79 31.5t-32 81z" />
<glyph unicode="&#xd0;" d="M61 614v123h142v697q145 10 299 10q606 0 639 -475q14 -217 0 -477q-14 -262 -194.5 -382t-465.5 -120l-278 10v614h-142zM387 147q57 -4 127 -4q422 0 442 340q14 244 0 475q-23 332 -434 332l-135 -4v-549h227v-123h-227v-467z" />
<glyph unicode="&#xd1;" horiz-adv-x="1382" d="M184 0v1434h187l551 -930l102 -228v1158h174v-1434h-184l-559 948l-97 217v-1165h-174zM444 1556q-8 90 32 147.5t120 57.5q51 0 135 -43t96 -43q47 0 47 88h109q20 -207 -154 -207q-45 0 -122.5 40t-96.5 40q-51 0 -51 -80h-115z" />
<glyph unicode="&#xd2;" horiz-adv-x="1269" d="M139 442q-12 285 0 555q8 213 143.5 340t352.5 127t351 -127t144 -340q12 -270 0 -555q-10 -215 -144 -344t-351 -129t-351.5 129t-144.5 344zM324 444q4 -150 88 -235.5t223 -85.5t223 86t88 235q8 250 0 549q-4 150 -87 234t-224 84t-224 -84t-87 -234q-8 -299 0 -549z M354 1802h185l204 -266h-157z" />
<glyph unicode="&#xd3;" horiz-adv-x="1269" d="M139 442q-12 285 0 555q8 213 143.5 340t352.5 127t351 -127t144 -340q12 -270 0 -555q-10 -215 -144 -344t-351 -129t-351.5 129t-144.5 344zM324 444q4 -150 88 -235.5t223 -85.5t223 86t88 235q8 250 0 549q-4 150 -87 234t-224 84t-224 -84t-87 -234q-8 -299 0 -549z M557 1536l188 266h185l-223 -266h-150z" />
<glyph unicode="&#xd4;" horiz-adv-x="1269" d="M139 442q-12 285 0 555q8 213 143.5 340t352.5 127t351 -127t144 -340q12 -270 0 -555q-10 -215 -144 -344t-351 -129t-351.5 129t-144.5 344zM324 444q4 -150 88 -235.5t223 -85.5t223 86t88 235q8 250 0 549q-4 150 -87 234t-224 84t-224 -84t-87 -234q-8 -299 0 -549z M371 1536l235 266h88l232 -266h-156l-125 141l-127 -141h-147z" />
<glyph unicode="&#xd5;" horiz-adv-x="1269" d="M139 442q-12 285 0 555q8 213 143.5 340t352.5 127t351 -127t144 -340q12 -270 0 -555q-10 -215 -144 -344t-351 -129t-351.5 129t-144.5 344zM324 444q4 -150 88 -235.5t223 -85.5t223 86t88 235q8 250 0 549q-4 150 -87 234t-224 84t-224 -84t-87 -234q-8 -299 0 -549z M369 1554q-8 90 31.5 147.5t119.5 57.5q49 0 133 -43t99 -43q47 0 47 88h108q20 -207 -153 -207q-45 0 -123 40t-96 40q-51 0 -52 -80h-114z" />
<glyph unicode="&#xd6;" horiz-adv-x="1269" d="M139 442q-12 285 0 555q8 213 143.5 340t352.5 127t351 -127t144 -340q12 -270 0 -555q-10 -215 -144 -344t-351 -129t-351.5 129t-144.5 344zM324 444q4 -150 88 -235.5t223 -85.5t223 86t88 235q8 250 0 549q-4 150 -87 234t-224 84t-224 -84t-87 -234q-8 -299 0 -549z M338 1644.5q0 49.5 32.5 82t80.5 32.5q51 0 83.5 -32.5t32.5 -82t-32.5 -81t-83.5 -31.5q-47 0 -80 31.5t-33 81zM707 1644.5q0 49.5 31.5 82t78.5 32.5q51 0 85 -32.5t34 -82t-34 -81t-85 -31.5q-47 0 -78.5 31.5t-31.5 81z" />
<glyph unicode="&#xd7;" horiz-adv-x="1269" d="M143 121l381 381l-377 379l109 114l377 -383l385 385l108 -112l-383 -381l383 -381l-108 -113l-385 381l-381 -381z" />
<glyph unicode="&#xd8;" horiz-adv-x="1241" d="M92 -31l117 191q-84 119 -90 282q-12 285 0 555q8 213 143 340t352 127q205 0 334 -110l68 110h133l-123 -198q78 -113 84 -269q12 -270 0 -555q-10 -215 -144.5 -344t-351.5 -129q-197 0 -325 105l-64 -105h-133zM303 444q0 -51 14 -108l539 870q-86 104 -242 105 q-141 0 -224 -84t-87 -234q-8 -299 0 -549zM379 219q86 -96 235 -96q139 0 223.5 86t88.5 235q8 250 0 549q-4 63 -13 90z" />
<glyph unicode="&#xd9;" horiz-adv-x="1320" d="M176 455v979h184q-2 -797 0 -979q2 -160 81 -246t220.5 -86t219 86t80.5 246v979h184q2 -745 0 -979q-2 -229 -135 -357.5t-348.5 -128.5t-349.5 128.5t-136 357.5zM383 1802h184l205 -266h-158z" />
<glyph unicode="&#xda;" horiz-adv-x="1320" d="M176 455v979h184q-2 -797 0 -979q2 -160 81 -246t220.5 -86t219 86t80.5 246v979h184q2 -745 0 -979q-2 -229 -135 -357.5t-348.5 -128.5t-349.5 128.5t-136 357.5zM586 1536l188 266h184l-223 -266h-149z" />
<glyph unicode="&#xdb;" horiz-adv-x="1320" d="M176 455v979h184q-2 -797 0 -979q2 -160 81 -246t220.5 -86t219 86t80.5 246v979h184q2 -745 0 -979q-2 -229 -135 -357.5t-348.5 -128.5t-349.5 128.5t-136 357.5zM401 1536l236 266h88l231 -266h-155l-125 141l-127 -141h-148z" />
<glyph unicode="&#xdc;" horiz-adv-x="1320" d="M176 455v979h184q-2 -797 0 -979q2 -160 81 -246t220.5 -86t219 86t80.5 246v979h184q2 -745 0 -979q-2 -229 -135 -357.5t-348.5 -128.5t-349.5 128.5t-136 357.5zM383 1644.5q0 49.5 33 82t80 32.5q51 0 83.5 -32.5t32.5 -82t-32.5 -81t-83.5 -31.5q-47 0 -80 31.5 t-33 81zM752 1644.5q0 49.5 31.5 82t78.5 32.5q51 0 85 -32.5t34 -82t-34 -81t-85 -31.5q-47 0 -78.5 31.5t-31.5 81z" />
<glyph unicode="&#xdd;" horiz-adv-x="1046" d="M-41 1434h201l332 -635l30 -76l31 76l326 635h198l-467 -859v-575h-184v575zM440 1536l189 266h184l-223 -266h-150z" />
<glyph unicode="&#xde;" horiz-adv-x="1146" d="M184 0v1434h185v-267q90 2 196 2q530 0 531 -430q0 -211 -135.5 -327.5t-395.5 -116.5l-196 2v-297h-185zM369 453q96 -2 186 -2q168 0 262 61t94 225q0 143 -81.5 211t-268.5 68l-192 -2v-561z" />
<glyph unicode="&#xdf;" horiz-adv-x="1163" d="M178 0v1083q0 213 133 333t312 120q168 0 285.5 -94t117.5 -289q0 -66 -27.5 -103.5t-111.5 -107.5q-25 -20 -87.5 -66.5t-101.5 -76.5q152 8 257.5 -71t109.5 -267q2 -63 0 -154q-8 -158 -108.5 -242.5t-274.5 -84.5q-98 0 -180 26l2 127q55 -20 155 -20q221 0 232 194 v154q-2 125 -59.5 175t-167.5 50q-43 0 -93 -4l-10 129q63 51 227 203q66 59 66 143q0 117 -66.5 176.5t-169.5 59.5q-106 0 -186 -77t-80 -214v-1102h-174z" />
<glyph unicode="&#xe0;" horiz-adv-x="1005" d="M106 254q0 100 43.5 146t161.5 81q57 16 140.5 37t138.5 34t53 11v99q0 111 -37 165t-129 54q-86 0 -135 -47.5t-49 -126.5l-154 -13q-16 147 88.5 238.5t259.5 91.5q158 0 244 -88t86 -264v-436q0 -72 30 -92.5t103 -20.5v-123q-18 -10 -58 -15t-87 -1t-87 39.5 t-52 99.5h-7q-92 -154 -272 -154q-119 0 -200 78t-81 207zM109 1434h204l226 -297h-162zM281 274q0 -80 46 -126t122 -46q88 0 141 65.5t53 164.5v131q-174 -41 -262 -70q-59 -20 -79.5 -46t-20.5 -73z" />
<glyph unicode="&#xe1;" horiz-adv-x="1005" d="M106 254q0 100 43.5 146t161.5 81q57 16 140.5 37t138.5 34t53 11v99q0 111 -37 165t-129 54q-86 0 -135 -47.5t-49 -126.5l-154 -13q-16 147 88.5 238.5t259.5 91.5q158 0 244 -88t86 -264v-436q0 -72 30 -92.5t103 -20.5v-123q-18 -10 -58 -15t-87 -1t-87 39.5 t-52 99.5h-7q-92 -154 -272 -154q-119 0 -200 78t-81 207zM281 274q0 -80 46 -126t122 -46q88 0 141 65.5t53 164.5v131q-174 -41 -262 -70q-59 -20 -79.5 -46t-20.5 -73zM371 1137l225 297h205l-271 -297h-159z" />
<glyph unicode="&#xe2;" horiz-adv-x="1005" d="M106 254q0 100 43.5 146t161.5 81q57 16 140.5 37t138.5 34t53 11v99q0 111 -37 165t-129 54q-86 0 -135 -47.5t-49 -126.5l-154 -13q-16 147 88.5 238.5t259.5 91.5q158 0 244 -88t86 -264v-436q0 -72 30 -92.5t103 -20.5v-123q-18 -10 -58 -15t-87 -1t-87 39.5 t-52 99.5h-7q-92 -154 -272 -154q-119 0 -200 78t-81 207zM156 1126l247 308h109l248 -308h-164l-139 172l-142 -172h-159zM281 274q0 -80 46 -126t122 -46q88 0 141 65.5t53 164.5v131q-174 -41 -262 -70q-59 -20 -79.5 -46t-20.5 -73z" />
<glyph unicode="&#xe3;" horiz-adv-x="1005" d="M106 254q0 100 43.5 146t161.5 81q57 16 140.5 37t138.5 34t53 11v99q0 111 -37 165t-129 54q-86 0 -135 -47.5t-49 -126.5l-154 -13q-16 147 88.5 238.5t259.5 91.5q158 0 244 -88t86 -264v-436q0 -72 30 -92.5t103 -20.5v-123q-18 -10 -58 -15t-87 -1t-87 39.5 t-52 99.5h-7q-92 -154 -272 -154q-119 0 -200 78t-81 207zM168 1206q-8 92 38 159t132 67q53 0 151.5 -48.5t122.5 -48.5q57 0 58 99h108q10 -98 -33 -163t-139 -65q-49 0 -141 45t-121 45q-61 0 -61 -90h-115zM281 274q0 -80 46 -126t122 -46q88 0 141 65.5t53 164.5v131 q-174 -41 -262 -70q-59 -20 -79.5 -46t-20.5 -73z" />
<glyph unicode="&#xe4;" horiz-adv-x="1005" d="M106 254q0 100 43.5 146t161.5 81q57 16 140.5 37t138.5 34t53 11v99q0 111 -37 165t-129 54q-86 0 -135 -47.5t-49 -126.5l-154 -13q-16 147 88.5 238.5t259.5 91.5q158 0 244 -88t86 -264v-436q0 -72 30 -92.5t103 -20.5v-123q-18 -10 -58 -15t-87 -1t-87 39.5 t-52 99.5h-7q-92 -154 -272 -154q-119 0 -200 78t-81 207zM164 1319q0 49 32.5 82t79.5 33q51 0 84 -33t33 -82t-32.5 -81t-84.5 -32q-47 0 -79.5 32t-32.5 81zM281 274q0 -80 46 -126t122 -46q88 0 141 65.5t53 164.5v131q-174 -41 -262 -70q-59 -20 -79.5 -46t-20.5 -73z M532 1319q0 49 32 82t79 33q51 0 85 -33t34 -82t-34 -81t-85 -32q-47 0 -79 32t-32 81z" />
<glyph unicode="&#xe5;" horiz-adv-x="1005" d="M106 254q0 100 43.5 146t161.5 81q57 16 140.5 37t138.5 34t53 11v99q0 111 -37 165t-129 54q-86 0 -135 -47.5t-49 -126.5l-154 -13q-16 147 88.5 238.5t259.5 91.5q158 0 244 -88t86 -264v-436q0 -72 30 -92.5t103 -20.5v-123q-18 -10 -58 -15t-87 -1t-87 39.5 t-52 99.5h-7q-92 -154 -272 -154q-119 0 -200 78t-81 207zM260 1335q0 90 61.5 145.5t141.5 55.5q78 0 140.5 -56.5t62.5 -144.5t-60.5 -146.5t-142.5 -58.5t-142.5 58.5t-60.5 146.5zM281 274q0 -80 46 -126t122 -46q88 0 141 65.5t53 164.5v131q-174 -41 -262 -70 q-59 -20 -79.5 -46t-20.5 -73zM373 1337q0 -47 26.5 -75.5t63.5 -28.5q39 0 64.5 28.5t25.5 75.5q0 39 -25.5 68t-64.5 29q-37 0 -63.5 -28t-26.5 -69z" />
<glyph unicode="&#xe6;" horiz-adv-x="1497" d="M106 250q0 100 45.5 152.5t147.5 78.5q57 14 145 29.5t147.5 24t57.5 6.5v139q0 201 -172 201q-86 0 -135 -47.5t-49 -126.5l-154 -13q-18 133 76 231.5t268 98.5q180 0 271 -117q106 117 288 117q162 0 255.5 -88t93.5 -240q0 -100 -33 -133t-148 -55q-154 -29 -387 -55 v-107q2 -117 62.5 -175t156.5 -58q170 0 197 184l143 -10q6 -129 -86 -223.5t-254 -94.5q-121 0 -214 49.5t-140 143.5q-80 -193 -293 -193q-123 0 -206 78t-83 203zM281 270q0 -78 46 -123t122 -45q90 0 145 61.5t55 158.5v120q-168 -25 -256 -49q-61 -16 -86.5 -44 t-25.5 -79zM825 557q152 16 291 43q63 12 84 33.5t21 66.5q0 86 -45.5 133.5t-128.5 47.5q-111 0 -166.5 -73t-55.5 -198v-53z" />
<glyph unicode="&#xe7;" horiz-adv-x="921" d="M121 328q-6 174 0 327q6 176 111.5 272.5t271.5 96.5t260 -84t90 -223l-154 -10q-4 88 -59 131t-137 43q-92 0 -148.5 -58.5t-60.5 -167.5q-6 -160 0 -297q8 -246 217 -245q88 0 137 51t62 133l143 -10q6 -129 -86 -223.5t-256 -94.5q-172 0 -279.5 92.5t-111.5 266.5z M299 -324h113q0 -35 20.5 -54t54.5 -19q29 0 48.5 18.5t19.5 54.5q0 74 -80 74v113q88 8 145.5 -45.5t57.5 -141.5q0 -78 -52.5 -132t-138.5 -54q-84 0 -140 51t-48 135z" />
<glyph unicode="&#xe8;" horiz-adv-x="966" d="M121 338q-6 184 0 305q8 166 110.5 273.5t280.5 107.5q162 0 255 -92t93 -246q0 -98 -31.5 -130t-148.5 -56l-387 -66v-65q0 -123 59.5 -189.5t159.5 -66.5q90 0 140 51t63 133l143 -10q6 -129 -88 -223.5t-258 -94.5q-178 0 -282.5 100.5t-108.5 268.5zM154 1434h204 l226 -297h-162zM293 547q147 18 289 49q66 14 85 32.5t19 61.5q0 88 -46 139.5t-128 51.5q-111 0 -165 -73t-54 -198v-63z" />
<glyph unicode="&#xe9;" horiz-adv-x="966" d="M121 338q-6 184 0 305q8 166 110.5 273.5t280.5 107.5q162 0 255 -92t93 -246q0 -98 -31.5 -130t-148.5 -56l-387 -66v-65q0 -123 59.5 -189.5t159.5 -66.5q90 0 140 51t63 133l143 -10q6 -129 -88 -223.5t-258 -94.5q-178 0 -282.5 100.5t-108.5 268.5zM293 547 q147 18 289 49q66 14 85 32.5t19 61.5q0 88 -46 139.5t-128 51.5q-111 0 -165 -73t-54 -198v-63zM375 1137l225 297h205l-270 -297h-160z" />
<glyph unicode="&#xea;" horiz-adv-x="966" d="M121 338q-6 184 0 305q8 166 110.5 273.5t280.5 107.5q162 0 255 -92t93 -246q0 -98 -31.5 -130t-148.5 -56l-387 -66v-65q0 -123 59.5 -189.5t159.5 -66.5q90 0 140 51t63 133l143 -10q6 -129 -88 -223.5t-258 -94.5q-178 0 -282.5 100.5t-108.5 268.5zM201 1126 l248 308h108l248 -308h-164l-139 172l-142 -172h-159zM293 547q147 18 289 49q66 14 85 32.5t19 61.5q0 88 -46 139.5t-128 51.5q-111 0 -165 -73t-54 -198v-63z" />
<glyph unicode="&#xeb;" horiz-adv-x="966" d="M121 338q-6 184 0 305q8 166 110.5 273.5t280.5 107.5q162 0 255 -92t93 -246q0 -98 -31.5 -130t-148.5 -56l-387 -66v-65q0 -123 59.5 -189.5t159.5 -66.5q90 0 140 51t63 133l143 -10q6 -129 -88 -223.5t-258 -94.5q-178 0 -282.5 100.5t-108.5 268.5zM197 1319 q0 49 32.5 82t79.5 33q51 0 84 -33t33 -82t-33 -81t-84 -32q-47 0 -79.5 32t-32.5 81zM293 547q147 18 289 49q66 14 85 32.5t19 61.5q0 88 -46 139.5t-128 51.5q-111 0 -165 -73t-54 -198v-63zM565 1319q0 49 32 82t79 33q51 0 85 -33t34 -82t-34 -81t-85 -32q-47 0 -79 32 t-32 81z" />
<glyph unicode="&#xec;" horiz-adv-x="499" d="M-131 1434h205l225 -297h-162zM137 197v745l174 72v-756q0 -76 30 -105.5t103 -29.5v-123q-125 -35 -216 10.5t-91 186.5z" />
<glyph unicode="&#xed;" horiz-adv-x="499" d="M137 197v745l174 72v-756q0 -76 30 -105.5t103 -29.5v-123q-125 -35 -216 10.5t-91 186.5zM147 1137l226 297h205l-271 -297h-160z" />
<glyph unicode="&#xee;" horiz-adv-x="499" d="M-80 1126l248 308h108l248 -308h-164l-139 172l-141 -172h-160zM137 197v745l174 72v-756q0 -76 30 -105.5t103 -29.5v-123q-125 -35 -216 10.5t-91 186.5z" />
<glyph unicode="&#xef;" horiz-adv-x="499" d="M-72 1323q0 49 33 82t80 33q51 0 84 -33t33 -82t-33 -81t-84 -32q-47 0 -80 32t-33 81zM137 197v745l174 72v-756q0 -76 30 -105.5t103 -29.5v-123q-125 -35 -216 10.5t-91 186.5zM297 1323q0 49 31.5 82t79.5 33q51 0 84.5 -33t33.5 -82t-33.5 -81t-84.5 -32 q-47 0 -79 32t-32 81z" />
<glyph unicode="&#xf0;" horiz-adv-x="1077" d="M133 328q-6 164 0 297q8 158 109.5 253t240.5 95q186 0 265 -137q-27 248 -181 413l-192 -143h-170l291 213q-125 104 -297 151l151 66q139 -49 248 -131l170 131h182l-274 -197q236 -231 256 -645q8 -172 0 -366q-8 -166 -120 -262.5t-277 -96.5q-168 0 -282 97.5 t-120 261.5zM307 338q4 -102 66.5 -163.5t161.5 -61.5q96 0 157.5 60t65.5 163q6 129 0 289q-4 96 -69.5 150t-160.5 54q-96 0 -156.5 -52t-64.5 -163q-4 -151 0 -276z" />
<glyph unicode="&#xf1;" horiz-adv-x="1101" d="M66 870v113q47 20 100 21q70 0 120 -37t62 -111h2q102 168 309 168q139 0 222.5 -90t83.5 -246v-688h-174v668q0 213 -189 213q-100 0 -170 -66.5t-70 -134.5v-680h-174v776q0 57 -28 75.5t-94 18.5zM270 1206q-8 92 38 159t132 67q53 0 151.5 -48.5t123.5 -48.5 q57 0 57 99h109q10 -98 -33 -163t-139 -65q-49 0 -141.5 45t-121.5 45q-61 0 -61 -90h-115z" />
<glyph unicode="&#xf2;" horiz-adv-x="1034" d="M123 338q-6 178 0 321q8 164 115.5 264.5t279.5 100.5t278.5 -100.5t114.5 -264.5q8 -150 0 -321q-8 -164 -116.5 -266.5t-276.5 -102.5q-170 0 -279.5 102.5t-115.5 266.5zM166 1434h205l225 -297h-162zM297 344q4 -102 64.5 -166.5t156.5 -64.5q94 0 154.5 64.5 t64.5 164.5q6 145 0 313q-4 100 -62.5 163t-156.5 63t-157.5 -61.5t-63.5 -164.5q-6 -170 0 -311z" />
<glyph unicode="&#xf3;" horiz-adv-x="1034" d="M123 338q-6 178 0 321q8 164 115.5 264.5t279.5 100.5t278.5 -100.5t114.5 -264.5q8 -150 0 -321q-8 -164 -116.5 -266.5t-276.5 -102.5q-170 0 -279.5 102.5t-115.5 266.5zM297 344q4 -102 64.5 -166.5t156.5 -64.5q94 0 154.5 64.5t64.5 164.5q6 145 0 313 q-4 100 -62.5 163t-156.5 63t-157.5 -61.5t-63.5 -164.5q-6 -170 0 -311zM420 1137l225 297h205l-270 -297h-160z" />
<glyph unicode="&#xf4;" horiz-adv-x="1034" d="M123 338q-6 178 0 321q8 164 115.5 264.5t279.5 100.5t278.5 -100.5t114.5 -264.5q8 -150 0 -321q-8 -164 -116.5 -266.5t-276.5 -102.5q-170 0 -279.5 102.5t-115.5 266.5zM211 1126l248 308h108l248 -308h-164l-139 172l-141 -172h-160zM297 344q4 -102 64.5 -166.5 t156.5 -64.5q94 0 154.5 64.5t64.5 164.5q6 145 0 313q-4 100 -62.5 163t-156.5 63t-157.5 -61.5t-63.5 -164.5q-6 -170 0 -311z" />
<glyph unicode="&#xf5;" horiz-adv-x="1034" d="M123 338q-6 178 0 321q8 164 115.5 264.5t279.5 100.5t278.5 -100.5t114.5 -264.5q8 -150 0 -321q-8 -164 -116.5 -266.5t-276.5 -102.5q-170 0 -279.5 102.5t-115.5 266.5zM209 1206q-8 92 38 159t132 67q53 0 151.5 -48.5t122.5 -48.5q57 0 58 99h108q10 -98 -33 -163 t-139 -65q-49 0 -141 45t-121 45q-61 0 -61 -90h-115zM297 344q4 -102 64.5 -166.5t156.5 -64.5q94 0 154.5 64.5t64.5 164.5q6 145 0 313q-4 100 -62.5 163t-156.5 63t-157.5 -61.5t-63.5 -164.5q-6 -170 0 -311z" />
<glyph unicode="&#xf6;" horiz-adv-x="1034" d="M123 338q-6 178 0 321q8 164 115.5 264.5t279.5 100.5t278.5 -100.5t114.5 -264.5q8 -150 0 -321q-8 -164 -116.5 -266.5t-276.5 -102.5q-170 0 -279.5 102.5t-115.5 266.5zM217 1319q0 49 33 82t80 33q51 0 83.5 -33t32.5 -82t-32.5 -81t-83.5 -32q-47 0 -80 32t-33 81z M297 344q4 -102 64.5 -166.5t156.5 -64.5q94 0 154.5 64.5t64.5 164.5q6 145 0 313q-4 100 -62.5 163t-156.5 63t-157.5 -61.5t-63.5 -164.5q-6 -170 0 -311zM586 1319q0 49 31.5 82t78.5 33q51 0 85 -33t34 -82t-33.5 -81t-85.5 -32q-47 0 -78.5 32t-31.5 81z" />
<glyph unicode="&#xf7;" horiz-adv-x="1202" d="M76 461v153h1050v-153h-1050zM465 131q0 57 37 96t94 39t96 -39t39 -96q0 -55 -39 -93t-96 -38t-94 38t-37 93zM465 940q0 57 37 96t94 39t96 -39t39 -96q0 -55 -39 -93t-96 -38t-94 38t-37 93z" />
<glyph unicode="&#xf8;" horiz-adv-x="1044" d="M88 -31l107 152q-70 94 -72 217q-6 178 0 321q8 164 115.5 264.5t279.5 100.5q152 0 258 -84l60 84h122l-112 -160q59 -88 65 -205q8 -150 0 -321q-8 -164 -116.5 -266.5t-276.5 -102.5q-145 0 -252 78l-55 -78h-123zM297 344q0 -31 10 -65l375 530q-59 72 -164 72 q-98 0 -157.5 -61.5t-63.5 -164.5q-6 -170 0 -311zM358 178q61 -66 160 -65q94 0 154.5 64.5t64.5 164.5q6 145 0 313q0 6 -1 15.5t-2 17.5t-3 17z" />
<glyph unicode="&#xf9;" horiz-adv-x="1067" d="M127 303v639l174 72v-678q0 -223 186 -223q102 0 160 58t58 134v637l174 72v-778q0 -72 29.5 -92.5t103.5 -20.5v-123q-25 -10 -63 -14t-84 2t-86 40.5t-54 94.5h-4q-86 -154 -281 -154q-141 0 -227 87t-86 247zM158 1434h204l226 -297h-162z" />
<glyph unicode="&#xfa;" horiz-adv-x="1067" d="M127 303v639l174 72v-678q0 -223 186 -223q102 0 160 58t58 134v637l174 72v-778q0 -72 29.5 -92.5t103.5 -20.5v-123q-25 -10 -63 -14t-84 2t-86 40.5t-54 94.5h-4q-86 -154 -281 -154q-141 0 -227 87t-86 247zM418 1137l225 297h205l-270 -297h-160z" />
<glyph unicode="&#xfb;" horiz-adv-x="1067" d="M127 303v639l174 72v-678q0 -223 186 -223q102 0 160 58t58 134v637l174 72v-778q0 -72 29.5 -92.5t103.5 -20.5v-123q-25 -10 -63 -14t-84 2t-86 40.5t-54 94.5h-4q-86 -154 -281 -154q-141 0 -227 87t-86 247zM217 1126l248 308h108l248 -308h-164l-139 172l-141 -172 h-160z" />
<glyph unicode="&#xfc;" horiz-adv-x="1067" d="M127 303v639l174 72v-678q0 -223 186 -223q102 0 160 58t58 134v637l174 72v-778q0 -72 29.5 -92.5t103.5 -20.5v-123q-25 -10 -63 -14t-84 2t-86 40.5t-54 94.5h-4q-86 -154 -281 -154q-141 0 -227 87t-86 247zM209 1319q0 49 32.5 82t80.5 33q51 0 83.5 -33t32.5 -82 t-32.5 -81t-83.5 -32q-47 0 -80 32t-33 81zM578 1319q0 49 31.5 82t78.5 33q51 0 85 -33t34 -82t-34 -81t-85 -32q-47 0 -78.5 32t-31.5 81z" />
<glyph unicode="&#xfd;" horiz-adv-x="860" d="M14 993h183l202 -622l31 -125h2l31 123l205 624h178q-4 -10 -72.5 -199.5t-149.5 -409.5t-178.5 -481t-158.5 -417h-166l221 565zM334 1137l225 297h205l-270 -297h-160z" />
<glyph unicode="&#xfe;" horiz-adv-x="1091" d="M178 -512v1976l174 72v-674q35 70 112 116t175 46q152 0 240 -93t92 -255q4 -160 0 -336q-6 -176 -102.5 -273.5t-239.5 -97.5q-90 0 -165 37t-112 96v-614h-174zM352 348q0 -125 68.5 -180t177.5 -55q86 0 139.5 56t59.5 163q8 172 0 346q-10 203 -211 203 q-94 0 -162 -62.5t-72 -140.5v-330z" />
<glyph unicode="&#xff;" horiz-adv-x="860" d="M14 993h183l202 -622l31 -125h2l31 123l205 624h178q-4 -10 -72.5 -199.5t-149.5 -409.5t-178.5 -481t-158.5 -417h-166l221 565zM135 1319q0 49 33 82t80 33q51 0 84 -33t33 -82t-33 -81t-84 -32q-47 0 -80 32t-33 81zM504 1319q0 49 31.5 82t78.5 33q51 0 85 -33 t34 -82t-33.5 -81t-85.5 -32q-47 0 -78.5 32t-31.5 81z" />
<glyph unicode="&#x152;" horiz-adv-x="1646" d="M129 424q-12 299 0 584q8 203 145.5 329.5t337.5 126.5q117 0 207 -30h735v-154h-563v-471h514v-154h-514v-501h563v-154h-737q-88 -31 -209 -31q-201 0 -336 125t-143 330zM303 426q4 -139 91 -221t220 -82q135 0 203 39v1108q-72 41 -205 41q-131 0 -218 -83t-91 -220 q-10 -260 0 -582z" />
<glyph unicode="&#x153;" horiz-adv-x="1591" d="M123 338q-6 178 0 321q8 164 115.5 264.5t279.5 100.5q203 0 311 -137q106 137 308 137q162 0 255 -92t93 -246q0 -98 -32 -130t-148 -56l-387 -66v-65q0 -123 59 -189.5t160 -66.5q90 0 140 51t62 133l144 -10q6 -129 -88.5 -223.5t-257.5 -94.5q-207 0 -314 133 q-111 -133 -305 -133q-170 0 -279.5 102.5t-115.5 266.5zM297 344q4 -102 64.5 -166.5t156.5 -64.5q94 0 154.5 64.5t64.5 164.5q6 145 0 313q-4 100 -62.5 163t-156.5 63t-157.5 -61.5t-63.5 -164.5q-6 -170 0 -311zM918 547q147 18 288 49q66 14 85.5 32.5t19.5 61.5 q0 88 -46 139.5t-128 51.5q-111 0 -165 -73t-54 -198v-63z" />
<glyph unicode="&#x178;" horiz-adv-x="1046" d="M-41 1434h201l332 -635l30 -76l31 76l326 635h198l-467 -859v-575h-184v575zM236 1640.5q0 49.5 32.5 82t79.5 32.5q51 0 84 -32.5t33 -82t-33 -81t-84 -31.5q-47 0 -79.5 31.5t-32.5 81zM604 1640.5q0 49.5 32 82t79 32.5q51 0 85 -32.5t34 -82t-34 -81t-85 -31.5 q-47 0 -79 31.5t-32 81z" />
<glyph unicode="&#x2c6;" horiz-adv-x="972" d="M178 1126l248 308h109l247 -308h-164l-139 172l-141 -172h-160z" />
<glyph unicode="&#x2dc;" horiz-adv-x="950" d="M180 1206q-8 92 38 159t132 67q53 0 151.5 -48.5t123.5 -48.5q57 0 57 99h109q10 -98 -33 -163t-140 -65q-49 0 -141 45t-121 45q-61 0 -61 -90h-115z" />
<glyph unicode="&#x2000;" horiz-adv-x="933" />
<glyph unicode="&#x2001;" horiz-adv-x="1869" />
<glyph unicode="&#x2002;" horiz-adv-x="933" />
<glyph unicode="&#x2003;" horiz-adv-x="1869" />
<glyph unicode="&#x2004;" horiz-adv-x="622" />
<glyph unicode="&#x2005;" horiz-adv-x="466" />
<glyph unicode="&#x2006;" horiz-adv-x="311" />
<glyph unicode="&#x2007;" horiz-adv-x="311" />
<glyph unicode="&#x2008;" horiz-adv-x="233" />
<glyph unicode="&#x2009;" horiz-adv-x="372" />
<glyph unicode="&#x200a;" horiz-adv-x="102" />
<glyph unicode="&#x2010;" horiz-adv-x="694" d="M76 461v153h542v-153h-542z" />
<glyph unicode="&#x2011;" horiz-adv-x="694" d="M76 461v153h542v-153h-542z" />
<glyph unicode="&#x2012;" horiz-adv-x="694" d="M76 461v153h542v-153h-542z" />
<glyph unicode="&#x2013;" horiz-adv-x="1046" d="M76 461v153h895v-153h-895z" />
<glyph unicode="&#x2014;" horiz-adv-x="1318" d="M76 461v153h1167v-153h-1167z" />
<glyph unicode="&#x2018;" horiz-adv-x="438" d="M88 1087q0 137 91 244t229 131l49 -73q-61 -16 -106.5 -45t-68 -56.5t-36 -53.5t-15.5 -42l-2 -16q45 6 89 -25t44 -102q0 -55 -38.5 -91t-90.5 -36q-66 0 -105.5 43.5t-39.5 121.5z" />
<glyph unicode="&#x2019;" horiz-adv-x="438" d="M-6 997q61 16 106 45t67.5 56.5t36 53.5t15.5 42l2 16q-45 -6 -89 25t-44 102q0 55 39 91t90 36q66 0 105.5 -44t39.5 -122q0 -137 -91 -243.5t-228 -130.5z" />
<glyph unicode="&#x201a;" horiz-adv-x="399" d="M-4 -242q61 16 106 45t68 56.5t36 53.5t15 42l2 16q-45 -6 -89 25t-44 102q0 55 39 91t90 36q66 0 106 -44t40 -122q0 -137 -91.5 -243.5t-228.5 -130.5z" />
<glyph unicode="&#x201c;" horiz-adv-x="774" d="M88 1087q0 137 91 244t229 131l49 -73q-61 -16 -106.5 -45t-68 -56.5t-36 -53.5t-15.5 -42l-2 -16q45 6 89 -25t44 -102q0 -55 -38.5 -91t-90.5 -36q-66 0 -105.5 43.5t-39.5 121.5zM424 1087q0 137 91 244t228 131l50 -73q-61 -16 -106.5 -45t-68 -56.5t-36 -53.5 t-15.5 -42l-2 -16q45 6 89 -25t44 -102q0 -55 -38.5 -91t-90.5 -36q-66 0 -105.5 43.5t-39.5 121.5z" />
<glyph unicode="&#x201d;" horiz-adv-x="774" d="M-6 997q61 16 106 45t67.5 56.5t36 53.5t15.5 42l2 16q-45 -6 -89 25t-44 102q0 55 39 91t90 36q66 0 105.5 -44t39.5 -122q0 -137 -91 -243.5t-228 -130.5zM330 997q61 16 106 45t67.5 56.5t36 53.5t15.5 42l2 16q-45 -6 -89 25t-44 102q0 55 39 91t90 36 q66 0 105.5 -44t39.5 -122q0 -137 -91 -243.5t-228 -130.5z" />
<glyph unicode="&#x201e;" horiz-adv-x="774" d="M-6 -242q61 16 106 45t67.5 56.5t36 53.5t15.5 42l2 16q-45 -6 -89 25t-44 102q0 55 39 91t90 36q66 0 105.5 -44t39.5 -122q0 -137 -91 -243.5t-228 -130.5zM315 -242q61 16 106.5 45t68 56.5t36 53.5t15.5 42l2 16q-45 -6 -89 25t-44 102q0 55 38.5 91t90.5 36 q66 0 105.5 -44t39.5 -122q0 -137 -91 -243.5t-228 -130.5z" />
<glyph unicode="&#x2022;" horiz-adv-x="669" d="M147 612q0 82 52.5 137.5t130.5 55.5q84 0 138 -54.5t54 -138.5q0 -78 -55 -130t-137 -52q-76 0 -129.5 53t-53.5 129z" />
<glyph unicode="&#x2026;" horiz-adv-x="1447" d="M90 100q0 57 37 96.5t94.5 39.5t96 -39t38.5 -97q0 -55 -38.5 -93t-96 -38t-94.5 38t-37 93zM598 100q0 57 37 96.5t94 39.5t96 -39t39 -97q0 -55 -39 -93t-96 -38t-94 38t-37 93zM1087 100q0 57 37 96.5t94.5 39.5t96.5 -39t39 -97q0 -55 -39 -93t-96.5 -38t-94.5 38 t-37 93z" />
<glyph unicode="&#x202f;" horiz-adv-x="372" />
<glyph unicode="&#x2039;" horiz-adv-x="598" d="M86 508v14l383 348l82 -104l-275 -244v-12l277 -264l-90 -103z" />
<glyph unicode="&#x203a;" horiz-adv-x="591" d="M45 768l90 100l371 -364v-15l-377 -348l-82 103l264 245v15z" />
<glyph unicode="&#x205f;" horiz-adv-x="466" />
<glyph unicode="&#x20ac;" horiz-adv-x="1214" d="M55 481l31 133h156q-4 92 0 185h-187l31 133h158q0 41 2 59q8 231 138 352t325 121q190 0 304.5 -110.5t106.5 -288.5l-164 -10q-2 113 -65.5 184.5t-181.5 71.5q-121 0 -197 -84t-82 -236q-2 -20 -2 -59h459l-21 -133h-440q-4 -90 0 -185h420l-21 -133h-397 q0 -8 1 -24.5t1 -24.5q4 -143 81 -226t198 -83q117 0 183 69.5t71 196.5l163 -10q8 -188 -106.5 -299t-310.5 -111q-199 0 -327 121t-136 340q-2 16 -2 51h-189z" />
<glyph unicode="&#x2122;" horiz-adv-x="1488" d="M-6 1321v113h606v-113h-231v-625h-144v625h-231zM696 696v738h125l240 -400l260 400h123v-738h-144v527l-231 -355h-27l-213 351v-523h-133z" />
<glyph unicode="&#xe000;" horiz-adv-x="995" d="M0 995h995v-995h-995v995z" />
<glyph unicode="&#xfb01;" horiz-adv-x="1112" d="M35 870v123h143v158q0 190 88 287.5t226 97.5q115 0 194 -66l-55 -116q-47 29 -129 28q-76 0 -113 -55t-37 -186v-148h572v-735q0 -76 29.5 -105.5t103.5 -29.5v-123q-125 -35 -216 10t-91 187v673h-398v-870h-174v870h-143zM719 1356q0 51 32.5 85t82.5 34 q51 0 85.5 -34t34.5 -85t-33.5 -84t-86.5 -33q-49 0 -82 33t-33 84z" />
<glyph unicode="&#xfb02;" horiz-adv-x="1142" d="M35 870v123h143v148q0 188 107.5 291.5t259.5 103.5q137 0 229 -70l170 70v-1280q0 -76 30 -104.5t103 -28.5v-123q-119 -35 -213 9t-94 186v1140q-61 57 -201 58q-211 0 -217 -252v-148h246v-123h-246v-870h-174v870h-143z" />
<glyph unicode="&#xfb03;" horiz-adv-x="1716" d="M35 870v123h143v158q0 188 94.5 286.5t235.5 98.5t219 -61l-27 -121q-78 39 -159 39q-94 0 -141.5 -57.5t-47.5 -194.5v-148h430v158q0 190 88 287.5t226 97.5q115 0 194 -66l-55 -116q-47 29 -129 28q-76 0 -113 -55t-37 -186v-148h572v-735q0 -76 29.5 -105.5 t103.5 -29.5v-123q-125 -35 -216 10t-91 187v673h-398v-870h-174v870h-430v-870h-174v870h-143zM1323 1356q0 51 33 85t82 34q51 0 86 -34t35 -85t-34 -84t-87 -33q-49 0 -82 33t-33 84z" />
<glyph unicode="&#xfb04;" horiz-adv-x="1746" d="M35 870v123h143v158q0 188 94.5 286.5t235.5 98.5t219 -61l-27 -121q-78 39 -159 39q-94 0 -141.5 -57.5t-47.5 -194.5v-148h430v148q0 188 107.5 291.5t259.5 103.5q137 0 229 -70l170 70v-1280q0 -76 30 -104.5t103 -28.5v-123q-119 -35 -213 9t-94 186v1140 q-61 57 -200 58q-211 0 -218 -252v-148h246v-123h-246v-870h-174v870h-430v-870h-174v870h-143z" />
</font>
</defs>
</svg>
