<?xml version="1.0" standalone="no"?>
<!DOCTYPE svg PUBLIC "-//W3C//DTD SVG 1.1//EN" "http://www.w3.org/Graphics/SVG/1.1/DTD/svg11.dtd" >
<svg xmlns="http://www.w3.org/2000/svg">
<metadata>
This is a custom SVG webfont generated by Font Squirrel.
Copyright   : Font designed by Loic Sander 2012 Distributed under the terms of the SIL OFL Licence Free for commercial use This font file can me modified at will under the conditions that any modification made is mentionned and clearly stated in the filename or accompanying info in case of further distribution
Designer    : Loic Sander
Foundry     : Loic Sander
</metadata>
<defs>
<font id="FengardoNeueBlack" horiz-adv-x="1058" >
<font-face units-per-em="2048" ascent="1475" descent="-573" />
<missing-glyph horiz-adv-x="450" />
<glyph unicode=" "  horiz-adv-x="450" />
<glyph unicode="&#x09;" horiz-adv-x="450" />
<glyph unicode="&#xa0;" horiz-adv-x="450" />
<glyph unicode="!" horiz-adv-x="501" d="M31 1452l440 33l-106 -942h-232q-102 868 -102 909zM45 170q0 90 58.5 147.5t146.5 57.5t147.5 -57.5t59.5 -147.5q0 -86 -59.5 -143.5t-147.5 -57.5q-86 0 -145.5 57.5t-59.5 143.5z" />
<glyph unicode="&#x22;" horiz-adv-x="845" d="M31 1485l338 35l-21 -701h-239q-78 639 -78 666zM459 819q10 639 10 666l346 35l-117 -701h-239z" />
<glyph unicode="#" horiz-adv-x="1267" d="M41 293l31 256h190l14 153h-194l29 256h192l29 271h286l-26 -271h153l29 271h287l-27 -271h193l-27 -256h-190l-17 -153h195l-25 -256h-194l-29 -293h-291l29 293h-152l-28 -293h-291l29 293h-195zM551 549h154l14 153h-152z" />
<glyph unicode="$" horiz-adv-x="1103" d="M74 520l362 10q0 -156 137 -155q111 0 111 84q0 25 -12.5 43t-45 35.5t-55 25.5t-80 26.5t-79.5 26.5q-162 55 -248 138.5t-86 246.5q0 162 101.5 263.5t266.5 128.5v135l267 69v-213q156 -33 240.5 -135t74.5 -278l-360 -10q0 156 -111 155q-47 0 -76.5 -23.5 t-29.5 -68.5q0 -16 5 -31.5t12 -27t22.5 -22.5t26.5 -18t34.5 -17.5t36 -15.5t43.5 -16.5t43 -15.5q68 -25 109.5 -43t100 -53t91.5 -72t57.5 -94t24.5 -127q0 -143 -95.5 -239.5t-248.5 -127.5v-147l-267 -70v213q-382 60 -372 420z" />
<glyph unicode="%" horiz-adv-x="1517" d="M41 1083q0 137 86 223.5t221 86.5q137 0 223 -86t86 -224q0 -133 -90 -219t-219 -86q-135 0 -221 85t-86 220zM289 1085.5q0 -30.5 17.5 -51t44 -20.5t44 20.5t17.5 51t-17.5 51t-44 20.5t-44 -20.5t-17.5 -51zM301 0l690 1454h266l-690 -1454h-266zM860 274 q0 137 86 223.5t221 86.5q137 0 223.5 -86t86.5 -224q0 -133 -90.5 -219t-219.5 -86q-135 0 -221 85t-86 220zM1108 276.5q0 -30.5 17.5 -51t44 -20.5t44 20.5t17.5 51t-17.5 51t-44 20.5t-44 -20.5t-17.5 -51z" />
<glyph unicode="&#x26;" horiz-adv-x="1325" d="M51 424q0 113 62.5 205t169.5 149q-82 41 -137.5 124t-55.5 183q0 182 148.5 291t351.5 109q225 0 354 -121t129 -350l-358 -10q0 78 -32 120.5t-87 42.5q-57 0 -87 -38.5t-30 -98.5q0 -66 32 -108.5t101 -42.5v-246q-82 0 -127 -44t-45 -122q0 -82 51.5 -131t129.5 -49 q90 0 144 63.5t54 165.5v117h-104v246h579v-246h-106v-86q0 -248 -169 -413t-417 -165t-399.5 123t-151.5 332z" />
<glyph unicode="'" horiz-adv-x="403" d="M31 1485l342 35l-45 -701h-240q-57 639 -57 666z" />
<glyph unicode="(" horiz-adv-x="755" d="M82 594q0 459 311 797q82 90 152 137l211 -35q-12 -14 -33 -41t-74 -116t-93 -186t-72.5 -245.5t-32.5 -300.5q0 -440 227 -770q39 -57 67 -88l-210 -55q-18 12 -49 34.5t-109 104.5t-137.5 177t-108.5 254t-49 333z" />
<glyph unicode=")" horiz-adv-x="755" d="M0 1493l211 35q18 -12 50 -37t112 -112t140 -186t110.5 -262t50.5 -337q0 -127 -24.5 -245t-64.5 -206t-89.5 -164.5t-97.5 -128t-88 -88t-64 -53.5l-25 -18l-211 55q12 12 31.5 35.5t71 106.5t90.5 175.5t70.5 239t31.5 301.5q0 152 -31.5 299.5t-75.5 248.5t-89.5 182 t-75.5 120z" />
<glyph unicode="*" horiz-adv-x="872" d="M-25 1116l78 217l254 -100l-31 270l263 13l-29 -283l246 100l69 -231l-262 -47l201 -246l-207 -135l-156 254l-153 -250l-199 133l184 238z" />
<glyph unicode="+" horiz-adv-x="1105" d="M51 369v297h338v368h328v-368h338v-297h-338v-379h-328v379h-338z" />
<glyph unicode="," horiz-adv-x="501" d="M-10 -242q182 51 221 181l6 28q-78 4 -130 60.5t-52 144.5q0 90 61.5 143.5t141.5 53.5q104 0 163.5 -72t59.5 -184q0 -115 -42 -205t-107.5 -141.5t-129 -79t-123.5 -33.5z" />
<glyph unicode="-" horiz-adv-x="579" d="M31 369v297h518v-297h-518z" />
<glyph unicode="." horiz-adv-x="509" d="M51 174q0 94 57.5 152.5t145.5 58.5t146.5 -58.5t58.5 -152.5q0 -90 -58.5 -147.5t-146.5 -57.5q-86 0 -144.5 57.5t-58.5 147.5z" />
<glyph unicode="/" horiz-adv-x="1019" d="M-10 -205l733 1721h307l-733 -1721h-307z" />
<glyph unicode="0" horiz-adv-x="1120" d="M66 387q-4 223 0 340q8 180 141 305t352 125q213 0 350.5 -121t145.5 -305q6 -168 0 -344q-6 -180 -135 -299t-354.5 -119t-360.5 120t-139 298zM430 410q4 -57 40 -95.5t91 -38.5q57 0 89 35t36 97q8 154 0 303q-4 61 -37 100t-88 39q-123 0 -131 -145q-8 -113 0 -295z " />
<glyph unicode="1" horiz-adv-x="890" d="M82 0v225l197 47v539h-173l-22 203l418 121l145 -9v-854l203 -47v-225h-768z" />
<glyph unicode="2" horiz-adv-x="1062" d="M51 684q-8 211 126 342t345 131q190 0 319.5 -99.5t129.5 -287.5q0 -180 -180 -338q-125 -106 -271 -164l174 19h328v-287h-936l-20 211q37 29 370 295q164 131 164 239q0 47 -24.5 76t-65.5 29q-53 0 -83 -39t-28 -106z" />
<glyph unicode="3" horiz-adv-x="1112" d="M41 84l348 20q6 -78 46 -116.5t101.5 -38.5t98.5 46t37 138t-50.5 143.5t-146.5 51.5l-88 -13l-49 162l229 342h-483v307h895l31 -225l-271 -385q135 -27 218 -139.5t83 -267.5q0 -209 -139 -338t-356 -129q-225 0 -361.5 122.5t-142.5 319.5z" />
<glyph unicode="4" horiz-adv-x="1155" d="M51 209l309 917l388 82l-306 -921h195l20 297l338 92v-389h129v-277h-129l-10 -338h-348v338h-547z" />
<glyph unicode="5" horiz-adv-x="1091" d="M51 74l348 20q12 -145 138 -145q66 0 100.5 54t34.5 144q0 190 -137 191q-39 0 -69 -23.5t-42 -52.5l-295 21l57 843h781v-307h-486l-22 -274q78 39 200 39q164 0 272.5 -107.5t108.5 -322.5q0 -250 -144 -381t-353 -131q-195 0 -339.5 110.5t-152.5 321.5z" />
<glyph unicode="6" horiz-adv-x="1150" d="M70 459q-16 303 0 534q16 207 147 334t365 127q213 0 337.5 -105.5t127.5 -314.5l-349 -20q0 61 -31.5 97t-91.5 36q-129 0 -137 -172q-6 -94 -6 -230q12 25 36 52.5t95.5 60.5t165.5 33q162 0 266.5 -121t104.5 -307q0 -233 -141.5 -362.5t-362.5 -129.5 q-219 0 -366.5 130.5t-159.5 357.5zM438 469q12 -193 158 -193q59 0 97 44.5t38 123.5q0 170 -143 170q-70 0 -108 -41t-42 -104z" />
<glyph unicode="7" horiz-adv-x="1048" d="M10 819v307h967l41 -256l-510 -1198h-408l494 1147h-584z" />
<glyph unicode="8" horiz-adv-x="1110" d="M51 391q0 221 197 336q-88 45 -138.5 129t-50.5 172q0 207 144.5 316.5t355.5 109.5q207 0 349.5 -106.5t142.5 -307.5q0 -88 -54.5 -177t-142.5 -136q98 -31 151.5 -120t53.5 -195q0 -219 -145.5 -331t-364.5 -112q-215 0 -356.5 106.5t-141.5 315.5zM418 430 q0 -76 39 -115t98 -39q57 0 97 39t40 115q0 74 -40 114t-97 40t-97 -40t-40 -114zM428 1012q0 -70 36 -106t91 -36t91 36t36 106q0 68 -36 101.5t-91 33.5t-91 -33.5t-36 -101.5z" />
<glyph unicode="9" horiz-adv-x="1167" d="M51 653q0 215 132 359.5t365.5 144.5t372 -132t154.5 -353q20 -268 0 -561q-16 -225 -156.5 -347t-371.5 -122q-207 0 -340 114.5t-141 302.5l348 21q0 -59 41 -95t102 -36q137 0 150 166q6 92 6 215q-47 -133 -254 -133q-176 0 -292 124.5t-116 331.5zM420 666 q0 -182 158 -183q76 0 105.5 46t23.5 118v19q-10 184 -152 184q-59 0 -97 -49t-38 -135z" />
<glyph unicode=":" horiz-adv-x="493" d="M61 174q0 94 57.5 152.5t145.5 58.5t146.5 -58.5t58.5 -152.5q0 -90 -58.5 -147.5t-146.5 -57.5q-86 0 -144.5 57.5t-58.5 147.5zM61 766q0 94 57.5 152.5t145.5 58.5t146.5 -58.5t58.5 -152.5q0 -90 -58.5 -147.5t-146.5 -57.5q-86 0 -144.5 57.5t-58.5 147.5z" />
<glyph unicode=";" horiz-adv-x="499" d="M-10 -242q182 51 221 181l6 28q-78 4 -130 60.5t-52 144.5q0 90 61.5 143.5t141.5 53.5q104 0 163.5 -72t59.5 -184q0 -115 -42 -205t-107.5 -141.5t-129 -79t-123.5 -33.5zM68 768q0 94 57 152.5t145 58.5t146.5 -58.5t58.5 -152.5q0 -90 -58.5 -147.5t-146.5 -57.5 q-86 0 -144 57.5t-58 147.5z" />
<glyph unicode="&#x3c;" horiz-adv-x="1046" d="M61 442v82l799 514l135 -229l-489 -303l2 -23l485 -327l-157 -219z" />
<glyph unicode="=" horiz-adv-x="1048" d="M51 190v287h946v-287h-946zM51 590v287h946v-287h-946z" />
<glyph unicode="&#x3e;" horiz-adv-x="1046" d="M51 164l488 303l-2 27l-484 323l158 219l774 -516v-82l-799 -504z" />
<glyph unicode="?" horiz-adv-x="995" d="M43 1024q-8 221 127 341t346 120q184 0 316.5 -104.5t132.5 -288.5q0 -98 -43 -164t-158 -154q-20 -14 -45 -33.5t-39 -31t-32.5 -24.5t-29 -22.5t-21.5 -19.5t-17.5 -17.5t-11.5 -16.5t-7 -16t-2 -15v-46h-190l-13 52q-18 92 12.5 149.5t131.5 159.5q51 55 63 89t12 89 q0 96 -83 96q-41 0 -67 -34.5t-24 -98.5zM266 170q0 90 58.5 147.5t146.5 57.5t147.5 -57.5t59.5 -147.5q0 -86 -59.5 -143.5t-147.5 -57.5q-86 0 -145.5 57.5t-59.5 143.5z" />
<glyph unicode="@" horiz-adv-x="1964" d="M41 393q0 451 286.5 735.5t737.5 284.5q178 0 330.5 -48t271.5 -141.5t187.5 -243t68.5 -337.5q0 -270 -146.5 -440t-402.5 -170q-231 0 -315 164q-102 -133 -258 -134q-125 0 -197 88.5t-55 274.5q10 106 43 238q86 332 452 331q242 0 386 -133l-82 -475 q-20 -123 75 -123q74 0 134.5 83t60.5 276q0 246 -146.5 390t-408.5 144q-319 0 -513 -200.5t-194 -536.5q0 -266 166 -420t453 -154q229 0 473 107l80 -184q-115 -90 -284 -135.5t-339 -45.5q-238 0 -431 91.5t-313 276.5t-120 437zM887 424q-12 -94 59 -94q49 0 74 47 l59 323q-27 18 -61 19q-70 0 -92 -84q-25 -92 -39 -211z" />
<glyph unicode="A" horiz-adv-x="1243" d="M-10 0l327 1368v86h605l331 -1454h-419l-48 256h-348l-49 -256h-399zM504 584h223l-78 430l-31 188l-30 -188z" />
<glyph unicode="B" horiz-adv-x="1214" d="M102 0v1454q281 2 486 2q129 0 225 -15.5t179 -54t126 -112.5t43 -182q0 -119 -80 -206t-200 -120v-6q8 0 33.5 -5t72.5 -25.5t86 -53.5t70 -98.5t31 -151.5q0 -186 -137.5 -307t-444.5 -121zM512 338q2 0 30.5 -1t57.5 -1q164 0 164 139q0 141 -162 141q-20 0 -40.5 -1 t-34.5 -1h-15v-276zM512 860q2 0 37 -1t59 -1q143 0 144 135q0 125 -158 125q-29 0 -54.5 -1t-27.5 -1v-256z" />
<glyph unicode="C" horiz-adv-x="1146" d="M66 455q-3 193 -3.5 331.5t3.5 223.5q8 225 167.5 350t380.5 125q109 0 201 -31t164 -90t112 -158q36 -89 36 -200q0 -11 -1 -23l-378 -10q0 86 -36 130t-97.5 44t-99.5 -40t-40 -116q-4 -96 -4 -225t4 -291q6 -168 137 -168q59 0 102.5 46t43.5 128l379 -10 q0 -225 -144.5 -363.5t-390.5 -138.5q-238 0 -385 130.5t-151 355.5z" />
<glyph unicode="D" horiz-adv-x="1241" d="M102 0v1454q184 10 381 10q645 0 680 -481q16 -208 16 -363q0 -90 -5 -161q-35 -469 -707 -469zM502 332q2 -4 51 -4q188 0 203 172q8 98 8 212t-8 244q-10 170 -197 170l-57 -4v-790z" />
<glyph unicode="E" horiz-adv-x="1052" d="M102 0v1454h869v-338h-459v-215h416v-328h-416v-235h459v-338h-869z" />
<glyph unicode="F" horiz-adv-x="995" d="M102 0v1454h883v-338h-473v-276h432v-328h-432v-512h-410z" />
<glyph unicode="G" horiz-adv-x="1208" d="M66 455q-3 193 -3.5 331.5t3.5 223.5q8 225 169.5 350t385.5 125q227 0 377 -129q143 -122 143 -348v-25l-379 -10q0 84 -39 129t-102.5 45t-102.5 -42t-43 -114q-5 -122 -5 -251t5 -265q2 -82 44 -125t106 -43q68 0 106.5 41t42.5 111v73h-147v287h538q1 -76 1 -138 q0 -126 -3 -200q-8 -258 -162.5 -385t-388 -127t-388 127.5t-158.5 358.5z" />
<glyph unicode="H" horiz-adv-x="1372" d="M102 0v1454h410v-553h348v553h410v-1454h-410v563h-348v-563h-410z" />
<glyph unicode="I" horiz-adv-x="614" d="M102 0v1454h410v-1454h-410z" />
<glyph unicode="J" horiz-adv-x="1069" d="M2 471l358 10v-11q0 -163 115 -163q102 0 103 164v983h409v-983q0 -242 -144.5 -372t-359.5 -130q-219 0 -356 131q-126 120 -126 332q0 19 1 39z" />
<glyph unicode="K" horiz-adv-x="1288" d="M102 0v1454h410v-1454h-410zM522 739l326 715h432l-340 -670l358 -784h-450z" />
<glyph unicode="L" horiz-adv-x="956" d="M102 0v1454h410v-1116h424v-338h-834z" />
<glyph unicode="M" horiz-adv-x="1572" d="M102 0v1454h400l217 -543l63 -161h4l60 159l237 545h387v-1454h-409l4 637l20 197l-4 2l-77 -199l-170 -371h-129l-162 373l-72 197l-4 -2l20 -201l5 -633h-390z" />
<glyph unicode="N" horiz-adv-x="1357" d="M102 0v1454h355l360 -676l49 -137v813h389v-1454h-360l-344 598l-59 168v-766h-390z" />
<glyph unicode="O" horiz-adv-x="1232" d="M68 471q-5 123 -5.5 251.5t5.5 262.5q8 238 162.5 369t388 131t387 -131t161.5 -369q4 -121 4 -250.5t-4 -267.5q-6 -238 -161.5 -368t-389 -130t-386 130t-162.5 372zM471 733q0 -176 6 -272q8 -154 139 -154q133 0 142 154q6 127 6 262.5t-6 280.5q-6 143 -139.5 143 t-141.5 -143q-6 -95 -6 -271z" />
<glyph unicode="P" horiz-adv-x="1187" d="M102 0v1454q176 2 349 2q123 0 213 -7t195.5 -37t172 -82t111.5 -147.5t45 -226.5q0 -219 -154.5 -353t-410.5 -134l-111 4v-473h-410zM512 788q25 -2 70 -2q86 0 141 41t55 129q0 162 -211 162l-55 -2v-328z" />
<glyph unicode="Q" horiz-adv-x="1241" d="M68 471q-5 123 -5.5 251.5t5.5 262.5q8 238 162.5 369t388 131t387 -131t161.5 -369q4 -121 4 -250.5t-4 -267.5q-6 -201 -120.5 -327t-296.5 -158q70 -8 225 -41q184 -37 229 -37t58 2v-256q-35 -47 -111 -47q-145 0 -352 139q-324 217 -428 270q-135 53 -215 170 t-88 289zM471 733q0 -176 6 -272q8 -154 139 -154q133 0 142 154q6 127 6 262.5t-6 280.5q-6 143 -139.5 143t-141.5 -143q-6 -95 -6 -271z" />
<glyph unicode="R" horiz-adv-x="1226" d="M113 0v1454q197 4 413 4q150 0 258.5 -16.5t202.5 -59.5t143.5 -125.5t49.5 -205.5q0 -281 -269 -396q55 -31 103 -123q37 -74 95 -206.5t99 -229.5l39 -96h-436l-227 547h-62v-547h-409zM522 834q6 -4 45 -5q205 0 205 156q0 154 -192 154l-58 -2v-303z" />
<glyph unicode="S" horiz-adv-x="1185" d="M63 471l379 10q0 -90 46.5 -132t119.5 -42q127 0 127 90q0 49 -58.5 90t-219.5 95q-383 125 -383 446q0 219 153.5 338t376.5 119q229 0 375 -126q136 -118 136 -344q0 -16 -1 -32l-379 -10q0 174 -135 174q-49 0 -83 -23.5t-34 -66.5q0 -57 52.5 -95t226.5 -100 q193 -68 288 -165t95 -289q0 -199 -150.5 -319t-384.5 -120q-154 0 -276.5 50.5t-200.5 166.5q-70 106 -70 254q-1 15 0 31z" />
<glyph unicode="T" horiz-adv-x="1040" d="M-10 1116v338h1061v-338h-326v-1116h-410v1116h-325z" />
<glyph unicode="U" horiz-adv-x="1239" d="M86 444v1010h391q-2 -113 -2 -488.5t2 -492.5q2 -78 42 -122t103.5 -44t99.5 44t40 122q2 111 2 484.5t-2 496.5h391q3 -259 3 -512.5t-3 -501.5q-2 -221 -158.5 -346t-380.5 -125q-221 0 -373.5 125t-154.5 350z" />
<glyph unicode="V" horiz-adv-x="1222" d="M0 1454h430l195 -1057l188 1057h410l-324 -1454h-559z" />
<glyph unicode="W" horiz-adv-x="1775" d="M20 1454h431l96 -676l26 -254h7l26 254l115 676h352l125 -676l31 -260h6l25 260l86 676h409l-282 -1454h-429l-122 676l-27 227h-4l-27 -227l-116 -676h-445z" />
<glyph unicode="X" horiz-adv-x="1255" d="M0 0l371 752l-371 702h471l164 -387l162 387h440l-369 -711l398 -743h-471l-191 438l-164 -438h-440z" />
<glyph unicode="Y" horiz-adv-x="1148" d="M-61 1454h434l164 -420l43 -141l45 141l170 420h415l-436 -913v-541h-409v543z" />
<glyph unicode="Z" horiz-adv-x="1089" d="M31 229l530 887h-520v338h995l15 -219l-529 -897h537v-338h-1016z" />
<glyph unicode="[" horiz-adv-x="636" d="M51 -287v1803h545v-136l-197 -51v-1429l197 -52v-135h-545z" />
<glyph unicode="\" horiz-adv-x="921" d="M-10 1516h307l635 -1721h-303z" />
<glyph unicode="]" horiz-adv-x="636" d="M41 -152l197 52v1429l-197 51v136h545v-1803h-545v135z" />
<glyph unicode="^" horiz-adv-x="907" d="M10 1085l285 369h334l268 -369h-307l-131 201l-152 -201h-297z" />
<glyph unicode="_" horiz-adv-x="925" d="M-10 -72h946v-297h-946v297z" />
<glyph unicode="`" horiz-adv-x="604" d="M-20 1454h378l164 -297h-243z" />
<glyph unicode="a" d="M61 281q0 102 50.5 162.5t164.5 93.5q137 41 287 69v70q0 72 -55 72q-31 0 -49 -21q-14 -15 -14 -42q0 -9 1 -19l-337 -11q-2 20 -2 39q0 151 102 245q115 105 313 105q180 0 295 -95t115 -271v-324q0 -61 19.5 -79.5t86.5 -18.5v-256q-55 -20 -125 -27q-12 -1 -23 -1 q-60 0 -130 26q-84 31 -123 106h-4q-100 -135 -271 -135q-129 0 -215 88.5t-86 223.5zM430 334q0 -78 68 -78q29 0 47 18.5t18 51.5v118q-45 -10 -80 -22q-53 -18 -53 -88z" />
<glyph unicode="b" horiz-adv-x="1042" d="M82 41v1434l369 61v-584q8 10 24.5 25.5t75.5 41t129 25.5q129 0 211 -81.5t86 -225.5q4 -98 4 -201t-4 -210q-6 -164 -139 -260.5t-306 -96.5q-119 0 -231.5 17.5t-165.5 36.5zM451 281q31 -14 77 -15q29 0 53.5 19.5t26.5 52.5q2 78 2 161t-2 171q0 78 -69 78 q-41 0 -64.5 -28t-23.5 -69v-370z" />
<glyph unicode="c" horiz-adv-x="958" d="M66 352q-3 90 -3.5 172t3.5 156q8 168 134 266t308 98q201 0 309 -104q96 -92 96 -244q0 -20 -2 -41l-338 -10q2 11 2 22q0 31 -14 52q-18 29 -53 29q-72 0 -74 -82q-3 -76 -3 -154.5t3 -159.5q2 -39 24.5 -62.5t51.5 -23.5q37 0 55 26q15 21 15 52v14l338 -10 q-4 -164 -114 -271.5t-294 -107.5q-195 0 -316.5 101.5t-127.5 281.5z" />
<glyph unicode="d" horiz-adv-x="1091" d="M66 303q-3 90 -3.5 182.5t3.5 186.5q8 180 101 276t226 96q127 0 193 -51v482l368 61v-1182q0 -61 19.5 -79.5t87.5 -18.5v-256q-66 -23 -143 -25h-10q-73 0 -145 29q-77 31 -112 96q-2 -6 -8 -14t-27.5 -30.5t-49 -40t-74 -32t-99.5 -14.5q-131 0 -225 88t-102 246z M434 348q4 -82 78 -82q35 0 54.5 20.5t19.5 55.5v328q0 37 -21.5 57.5t-52.5 20.5q-74 0 -78 -78q-3 -81 -3 -161.5t3 -160.5z" />
<glyph unicode="e" horiz-adv-x="983" d="M66 352q-3 72 -3.5 146t3.5 151q6 176 134 285.5t316 109.5q178 0 297 -94t119 -268q0 -102 -51.5 -147.5t-175.5 -71.5l-273 -47v-64q0 -39 19.5 -62.5t54.5 -23.5q33 0 53.5 21.5t22.5 60.5l338 -10q-6 -168 -122 -268.5t-292 -100.5q-182 0 -307 98.5t-133 284.5z M432 578q35 2 70 10q37 8 49 23.5t12 60.5q0 76 -63 76q-68 0 -68 -72v-98z" />
<glyph unicode="f" horiz-adv-x="679" d="M0 758v256h113v137q0 178 113.5 281.5t281.5 103.5q137 0 233 -55l-47 -262q-51 10 -104 10q-45 0 -77 -24.5t-32 -74.5v-116h197v-256h-197v-758h-368v758h-113z" />
<glyph unicode="g" horiz-adv-x="1087" d="M20 -231q0 59 27 89.5t92 49.5l111 24l100 11v10l-67 10q-86 16 -140.5 66.5t-54.5 134.5q0 139 172 213q-162 98 -162 299q0 174 128 271t315 97q47 0 93 -8t66 -16l23 -6h344q6 -51 6 -108q0 -66 -8 -138q-176 8 -223 18v-6q113 -41 112.5 -174t-111 -216t-296.5 -83 q-70 0 -119 10q-33 -14 -33 -41q0 -35 37 -41t156 -21t180 -28q145 -31 227 -115.5t82 -215.5q0 -184 -143 -291t-371 -107q-229 0 -386 82.5t-157 229.5zM391 -172q0 -37 46 -60.5t116 -23.5q76 0 117 23.5t41 62.5q0 68 -97 90l-165 -45q-58 -16 -58 -47zM469 678 q0 -84 72 -84q74 0 73 84q0 80 -73 80q-31 0 -51.5 -20.5t-20.5 -59.5z" />
<glyph unicode="h" horiz-adv-x="1069" d="M92 0v1475l369 61v-627h4q82 135 246 135q127 0 206.5 -83.5t79.5 -262.5v-698h-368v645q0 102 -76 103q-51 0 -71.5 -32t-20.5 -61v-655h-369z" />
<glyph unicode="i" horiz-adv-x="600" d="M61 1333q0 88 60.5 145.5t148.5 57.5q90 0 150.5 -56.5t60.5 -146.5q0 -86 -61.5 -141t-149.5 -55t-148.5 56t-60.5 140zM82 281v680l369 63v-678q0 -55 29.5 -72.5t88.5 -17.5v-256q-82 -18 -155 -19q-4 0 -8 -1q-70 0 -147 19q-81 19 -129 91t-48 191z" />
<glyph unicode="j" horiz-adv-x="606" d="M-20 -256q139 0 139 111v1106l368 63v-1198q0 -106 -35.5 -181t-88 -111t-123.5 -51q-60 -13 -113 -13q-11 0 -22 1q-62 3 -125 17v256zM94 1333q0 88 60.5 145.5t148.5 57.5q90 0 150.5 -56.5t60.5 -146.5q0 -86 -61.5 -141t-149.5 -55t-148.5 56t-60.5 140z" />
<glyph unicode="k" horiz-adv-x="1077" d="M92 0v1475l369 61v-1536h-369zM475 535v55l158 252q68 106 136.5 154t166.5 48q37 0 63.5 -4t36.5 -8l8 -6v-256q-45 0 -70.5 -13.5t-51.5 -51.5l-84 -127l112 -240q39 -84 127 -84v-256q-68 -29 -125 -29q-100 0 -181 45t-140 176z" />
<glyph unicode="l" horiz-adv-x="600" d="M82 281v1194l369 61v-1190q0 -55 29.5 -72.5t88.5 -17.5v-256q-82 -18 -155 -19q-4 0 -8 -1q-70 0 -147 19q-81 19 -129 91t-48 191z" />
<glyph unicode="m" horiz-adv-x="1587" d="M20 758v246q68 31 150 30q174 0 258 -127h8q82 137 256 137q178 0 258 -139h8q92 139 261 139q141 0 219 -92t78 -266v-686h-369v670q0 78 -64 78q-33 0 -55 -27t-24 -59v-662h-369v664q0 84 -60 84q-33 0 -56 -21.5t-27 -52.5v-674h-369v651q0 59 -23 83t-80 24z" />
<glyph unicode="n" horiz-adv-x="1095" d="M20 758v246q68 31 150 30q178 0 262 -133h4q90 143 275 143q139 0 226 -90t87 -276v-678h-369v668q0 80 -71 80q-45 0 -67.5 -30t-24.5 -59v-659h-369v651q0 59 -23 83t-80 24z" />
<glyph unicode="o" horiz-adv-x="1017" d="M66 338q-3 81 -3.5 165t3.5 171q6 166 132 268t312 102t310 -102t132 -268q3 -78 3 -162.5t-3 -175.5q-6 -166 -130 -266.5t-312 -100.5t-312 100.5t-132 268.5zM434 354q2 -39 23.5 -63.5t52.5 -24.5t51.5 24.5t22.5 63.5q3 73 3 150.5t-3 159.5q-2 35 -22.5 59.5 t-51.5 24.5t-52.5 -25t-23.5 -59q-3 -77 -3 -154.5t3 -155.5z" />
<glyph unicode="p" horiz-adv-x="1083" d="M20 758v256q68 12 140 17q10 1 19 1q63 0 129 -28q77 -33 120 -103q4 6 11 15.5t33 34t54.5 44t76.5 34.5t99 15q139 0 224.5 -92t91.5 -260q3 -83 3 -170t-3 -178q-6 -186 -105.5 -280.5t-261.5 -94.5l-159 33v-514h-369v1163q0 57 -24 82t-79 25zM492 350 q0 -39 21.5 -61.5t55.5 -22.5q37 0 58.5 23.5t21.5 58.5v307q0 92 -71 93q-37 0 -61.5 -29t-24.5 -68v-301z" />
<glyph unicode="q" horiz-adv-x="1036" d="M66 297q-4 67 -4.5 158t4.5 207q6 188 131 285t317 97q252 0 440 -75v-1481h-368v543q-61 -61 -197 -62q-133 0 -224 87t-99 241zM434 344q2 -35 21.5 -56.5t50.5 -21.5q33 0 56.5 22.5t23.5 53.5v397q-16 8 -72 9q-78 0 -80 -82q-2 -103 -2 -184t2 -138z" />
<glyph unicode="r" horiz-adv-x="788" d="M20 758v246q68 31 150 30q219 0 264 -237h6q0 100 58.5 173.5t148.5 73.5q94 0 141 -51l-20 -276q-25 2 -70 2q-98 0 -151 -33t-55 -123v-563h-369v651q0 59 -23 83t-80 24z" />
<glyph unicode="s" horiz-adv-x="929" d="M41 338l338 10q2 -37 21.5 -59.5t52.5 -22.5q31 0 49 16.5t18 41.5q0 12 -3 20t-12 15.5t-17.5 12.5t-27 10t-31.5 9t-43 11.5t-50 13.5q-66 18 -110 36.5t-90 50.5t-68.5 83t-22.5 121q0 154 125 245.5t311 91.5q184 0 296 -105q97 -92 98 -231q0 -20 -3 -42l-337 -11 q0 92 -62 93q-59 0 -59 -56q0 -35 29.5 -54.5t113.5 -43.5q72 -20 104.5 -30.5t86 -36t78 -52t44 -74t19.5 -108.5q0 -133 -121 -228.5t-305 -95.5q-178 0 -296 93.5t-126 275.5z" />
<glyph unicode="t" horiz-adv-x="772" d="M-10 758v256h141v223l369 61v-284h243v-256h-243v-352q0 -82 39 -118t116 -36q72 0 97 4l10 -256q-88 -31 -223 -31q-80 0 -148.5 18.5t-129 59.5t-95.5 118t-35 181v412h-141z" />
<glyph unicode="u" horiz-adv-x="1099" d="M72 358v605l368 61v-653q0 -104 76 -105q33 0 53.5 21.5t24.5 56.5v621l369 59v-670q0 -61 19 -79.5t87 -18.5v-256q-60 -24 -132 -24q-44 0 -92 9q-128 24 -194 113q-12 -20 -30.5 -42.5t-81 -54.5t-140.5 -32q-150 0 -238.5 97t-88.5 292z" />
<glyph unicode="v" horiz-adv-x="958" d="M-20 1014h395l80 -455l32 -207h7l36 207l86 455h363l-277 -1014h-436z" />
<glyph unicode="w" horiz-adv-x="1529" d="M-10 1014h395l55 -465l17 -158h6l24 156l103 467h352l105 -469l26 -152h10l21 154l63 467h373l-237 -1014h-429l-77 395l-33 223h-8l-31 -223l-86 -395h-414z" />
<glyph unicode="x" horiz-adv-x="1034" d="M-20 0l323 506l-321 508h421l125 -275l134 275h385l-302 -506l310 -508h-418l-137 248l-142 -248h-378z" />
<glyph unicode="y" horiz-adv-x="985" d="M-10 1014h389l84 -461l29 -180h4l34 180l97 461h368l-483 -1526h-369l170 522z" />
<glyph unicode="z" horiz-adv-x="911" d="M51 236l371 501h-371v277h789l12 -258l-354 -480h383v-276h-820z" />
<glyph unicode="{" horiz-adv-x="735" d="M20 551v133q135 31 136 166v362q0 104 42 174t104.5 96.5t133 30t132 -14t96.5 -46.5l20 -125q-94 0 -137 -31.5t-43 -138.5v-272q0 -109 -72 -188t-172 -83q100 -6 172 -85.5t72 -188.5v-268q0 -106 43 -138t137 -32l-20 -125q-45 -39 -128 -54.5t-169 -1t-148.5 90 t-62.5 204.5v369q-1 135 -136 166z" />
<glyph unicode="|" horiz-adv-x="491" d="M102 -512v2048h287v-2048h-287z" />
<glyph unicode="}" horiz-adv-x="735" d="M51 -98q94 0 137 31.5t43 138.5v268q0 109 71 188.5t173 85.5q-102 4 -173 83t-71 188v272q0 106 -43 138t-137 32l21 125q35 29 96 46.5t132 14t133.5 -30t104.5 -96t42 -174.5v-362q0 -135 135 -166v-133q-135 -31 -135 -166v-369q0 -129 -62.5 -204.5t-148.5 -90 t-169 1t-128 54.5z" />
<glyph unicode="~" horiz-adv-x="815" d="M52 563q-1 74 49.5 132.5t134.5 58.5q74 0 200.5 -41t149.5 -41q8 0 15 4t12 8t11.5 14.5t8.5 15.5t8 19.5t8 18.5l82 -27q29 -66 32 -139.5t-44 -132t-131 -58.5q-61 0 -197.5 41t-152.5 41q-39 0 -74 -80l-82 27q-29 65 -30 139z" />
<glyph unicode="&#xa1;" horiz-adv-x="497" d="M27 -471l106 942h232q102 -868 102 -909zM41 844q0 86 59.5 143t147.5 57q86 0 145.5 -57t59.5 -143q0 -90 -58.5 -147.5t-146.5 -57.5t-147.5 57.5t-59.5 147.5z" />
<glyph unicode="&#xa2;" horiz-adv-x="958" d="M66 352q-6 180 0 328q6 129 85.5 219t208.5 125v141l287 74v-211q135 -33 205 -130t59 -243l-338 -10q6 45 -12 74t-53 29q-72 0 -74 -82q-6 -152 0 -314q2 -39 24.5 -62.5t51.5 -23.5q37 0 55.5 25.5t14.5 66.5l338 -10q-4 -129 -75 -226t-196 -134v-150l-287 -74v224 q-133 33 -211.5 127t-82.5 237z" />
<glyph unicode="&#xa3;" horiz-adv-x="1214" d="M51 543l37 256h133q-2 70 -2 184q0 233 137.5 367.5t360.5 134.5q213 0 337 -132t107 -349l-379 -11q12 154 -86 154q-88 0 -88 -143q0 -41 4 -205h226l-37 -256h-183v-45q0 -121 -88 -219q137 49 236 49h408l-37 -328h-1045l-33 215q6 2 18.5 5t41 17.5t51.5 35t41 60.5 t18 91q0 72 -2 119h-176z" />
<glyph unicode="&#xa5;" horiz-adv-x="1271" d="M0 1454h434l164 -420l43 -141l45 141l170 420h416l-369 -772h205v-195h-272v-71h272v-195h-272v-221h-410v221h-285v195h285v71h-285v195h219z" />
<glyph unicode="&#xa6;" horiz-adv-x="491" d="M102 338h287v-850h-287v850zM102 707v829h287v-829h-287z" />
<glyph unicode="&#xa7;" horiz-adv-x="1026" d="M72 139l338 11q2 -37 23.5 -59.5t55.5 -22.5q33 0 52.5 20.5t19.5 46.5q0 35 -43 60.5t-131 60.5q-18 6 -27 10q-131 53 -207.5 122t-76.5 183q0 137 133 211q12 -20 58 -39.5t190 -70.5q-31 -18 -31 -64q0 -25 20.5 -45t45 -32.5t74.5 -34t81 -37.5q68 -35 103.5 -56.5 t85 -64.5t72 -99.5t22.5 -129.5q0 -139 -124 -228.5t-306.5 -89.5t-301 92t-126.5 256zM117 1161q0 145 114.5 234.5t292.5 89.5q176 0 279.5 -91t101.5 -261l-313 -11q0 86 -62 86q-25 0 -40 -17t-15 -46q0 -35 32 -66.5t69.5 -51t111.5 -52.5q125 -55 201 -128t76 -188 q0 -147 -127 -198q-23 25 -68 45t-195 74q27 20 27 65q0 23 -11 41.5t-36 34.5t-49.5 27.5t-68.5 31t-75 35.5q-117 57 -181 136t-64 210z" />
<glyph unicode="&#xa8;" horiz-adv-x="950" d="M119 1312.5q0 63.5 45 109.5t110 46q63 0 108.5 -46t45.5 -109.5t-45 -108.5t-108.5 -45t-109.5 45t-46 108.5zM522 1312.5q0 63.5 46 109.5t109.5 46t108.5 -46t45 -109.5t-45 -108.5t-108.5 -45t-109.5 45t-46 108.5z" />
<glyph unicode="&#xa9;" horiz-adv-x="1748" d="M113 669.5q0 317.5 222 541t539.5 223.5t540.5 -223.5t223 -541t-223 -539.5t-540.5 -222t-539.5 222t-222 539.5zM358 671.5q0 -239.5 145.5 -394t375.5 -154.5q227 0 370.5 154.5t143.5 394t-143.5 394.5t-370.5 155q-229 0 -375 -155t-146 -394.5zM543 573 q-6 80 0 209q8 139 99 216t243 77q156 0 245 -76.5t87 -216.5l-267 -10q0 102 -76 102q-63 0 -67 -77q-2 -104 0 -226q4 -82 74 -82q39 0 60.5 29t21.5 72l264 -10q-2 -135 -101.5 -214t-246.5 -79q-313 -1 -336 286z" />
<glyph unicode="&#xaa;" horiz-adv-x="790" d="M51 369v266h688v-266h-688zM51 981q0 68 35 105.5t111 60.5l196 45v41q0 47 -37 47q-47 0 -39 -53l-235 -6q-8 115 73 184.5t212 69.5q119 0 200.5 -62.5t81.5 -175.5v-209q0 -39 13.5 -51t56.5 -12v-166q-37 -14 -86 -18.5t-108.5 14t-84.5 71.5h-2q-23 -37 -69.5 -62.5 t-106.5 -25.5q-96 0 -153.5 56.5t-57.5 146.5zM305 1020q0 -47 45 -47q43 0 43 45v69q-31 -6 -53 -14q-35 -14 -35 -53z" />
<glyph unicode="&#xab;" horiz-adv-x="1167" d="M20 537v43l461 426l168 -185l-264 -235v-39l258 -279l-174 -180zM539 537v43l460 426l168 -185l-264 -235v-39l258 -279l-174 -180z" />
<glyph unicode="&#xac;" horiz-adv-x="1064" d="M51 379v297h963v-676h-328v379h-635z" />
<glyph unicode="&#xad;" horiz-adv-x="579" d="M31 369v297h518v-297h-518z" />
<glyph unicode="&#xae;" horiz-adv-x="1628" d="M51 669.5q0 317.5 222.5 541t539.5 223.5t540.5 -223.5t223.5 -541t-223.5 -539.5t-540.5 -222t-539.5 222t-222.5 539.5zM297 671.5q0 -239.5 145.5 -394t374.5 -154.5q227 0 370.5 154.5t143.5 394t-143.5 394.5t-370.5 155q-229 0 -374.5 -155t-145.5 -394.5zM502 307 v748h332q158 0 241.5 -63.5t83.5 -164.5q0 -125 -137 -200q35 -33 41 -49l115 -271h-287l-105 275h-18v-275h-266zM768 723h45q80 0 80 70q0 59 -82 59h-43v-129z" />
<glyph unicode="&#xaf;" horiz-adv-x="802" d="M102 1116v266h598v-266h-598z" />
<glyph unicode="&#xb0;" horiz-adv-x="675" d="M20 1085.5q0 131.5 92.5 224.5t225.5 93t225 -93t92 -224.5t-92 -224.5t-225 -93t-225.5 93t-92.5 224.5zM256 1085.5q0 -38.5 22.5 -65.5t59.5 -27t59.5 27t22.5 65.5t-22.5 65.5t-59.5 27t-59.5 -27t-22.5 -65.5z" />
<glyph unicode="&#xb1;" horiz-adv-x="1146" d="M123 623v286h287v316h327v-316h287v-286h-287v-295h-327v295h-287zM172 -31v277h799v-277h-799z" />
<glyph unicode="&#xb2;" horiz-adv-x="817" d="M72 973q39 33 132 99.5t126 92.5q76 61 103.5 104.5t27.5 96.5q0 27 -14.5 42t-36.5 15q-68 0 -68 -92l-266 -10q-8 137 87 222t257 85q145 0 231 -73.5t86 -200.5q0 -70 -28.5 -119t-87.5 -102q-47 -41 -193 -119h338v-215h-672z" />
<glyph unicode="&#xb3;" horiz-adv-x="786" d="M51 1044l266 11q0 -72 66 -72q29 0 47.5 21.5t18.5 54.5q0 100 -123 100q-8 0 -64 -6l-16 102l139 138h-305v204h608v-147l-160 -180q90 -2 143.5 -61.5t53.5 -147.5q0 -127 -101.5 -205t-244.5 -78q-139 0 -228.5 66.5t-99.5 199.5z" />
<glyph unicode="&#xb4;" horiz-adv-x="612" d="M82 1157l154 297h409l-321 -297h-242z" />
<glyph unicode="&#xb5;" horiz-adv-x="1099" d="M72 -512v1475l368 61v-653q0 -104 76 -105q33 0 53.5 21.5t24.5 56.5v621l369 59v-670q0 -61 19 -79.5t87 -18.5v-256q-96 -39 -224 -15.5t-194 113.5q-12 -20 -30.5 -42.5t-81 -54.5t-140.5 -32h-14q55 -100 55 -237v-244h-368z" />
<glyph unicode="&#xb6;" horiz-adv-x="1165" d="M31 696q0 164 113.5 271.5t322.5 107.5h49v-760h-49q-209 0 -322.5 108.5t-113.5 272.5zM471 0v195h152v983h-152v194h612v-194h-153v-983h153v-195h-612z" />
<glyph unicode="&#xb7;" horiz-adv-x="534" d="M82 522q0 94 57.5 152.5t145.5 58.5t146 -58.5t58 -152.5q0 -90 -58 -147.5t-146 -57.5q-86 0 -144.5 57.5t-58.5 147.5z" />
<glyph unicode="&#xb8;" horiz-adv-x="661" d="M86 -289h195q0 -23 14 -41t41 -18q45 0 45 49q0 20 -14.5 36.5t-38.5 16.5v185q121 0 194.5 -67t73.5 -167q0 -104 -75 -170.5t-183.5 -66.5t-184 66t-67.5 177z" />
<glyph unicode="&#xb9;" horiz-adv-x="688" d="M82 799v168l147 24v412h-135l-12 147l305 68l119 -10v-615l151 -24v-170h-575z" />
<glyph unicode="&#xba;" horiz-adv-x="727" d="M51 369v266h625v-266h-625zM61 1022q-6 102 0 209q6 111 89 177.5t216.5 66.5t216.5 -67t87 -177q6 -96 0 -209q-4 -111 -86 -177.5t-217.5 -66.5t-217.5 66.5t-88 177.5zM317 1032q0 -25 14.5 -42t35 -17t34 17.5t13.5 41.5q6 90 0 193q0 23 -13.5 39t-34 16t-35 -16.5 t-14.5 -38.5q-6 -97 0 -193z" />
<glyph unicode="&#xbb;" horiz-adv-x="1167" d="M0 842l188 194l441 -461v-43l-428 -475l-195 191l252 291v39zM518 842l189 194l440 -461v-43l-428 -475l-195 191l252 291v39z" />
<glyph unicode="&#xbc;" horiz-adv-x="1886" d="M102 655v168l148 25v412h-135l-13 147l306 68l118 -11v-614l152 -25v-170h-576zM477 0l690 1454h267l-691 -1454h-266zM1040 315l334 504q174 0 305 -10v-440h105v-195h-105v-174h-266v174h-342zM1243 369h170v252z" />
<glyph unicode="&#xbd;" horiz-adv-x="1939" d="M102 655v168l148 25v412h-135l-13 147l306 68l118 -11v-614l152 -25v-170h-576zM477 0l690 1454h267l-691 -1454h-266zM1143 174q39 33 132 99.5t126 93.5q76 61 103.5 104t27.5 96q0 27 -14.5 42.5t-36.5 15.5q-68 0 -68 -93l-266 -10q-8 137 87 222t257 85 q145 0 231 -73.5t86 -200.5q0 -70 -28.5 -119t-87.5 -102q-47 -41 -193 -119h338v-215h-672z" />
<glyph unicode="&#xbe;" horiz-adv-x="1912" d="M102 901l267 10q0 -72 65 -71q29 0 47.5 21.5t18.5 53.5q0 100 -123 101q-8 0 -64 -6l-16 102l139 137h-305v205h608v-147l-159 -181q90 -2 143 -61t53 -147q0 -127 -101.5 -205t-244.5 -78q-139 0 -228.5 66.5t-99.5 199.5zM512 0l690 1454h266l-690 -1454h-266z M1067 315l334 504q174 0 305 -10v-440h104v-195h-104v-174h-266v174h-342zM1270 369h170v252z" />
<glyph unicode="&#xbf;" horiz-adv-x="962" d="M-25 -78q0 98 43 164t158 154q20 14 45 33.5t39 30.5t32.5 24.5t29 22.5t21.5 19.5t17.5 17.5t11.5 16.5t7 16.5t2 15v45h190l13 -51q18 -92 -12.5 -149.5t-131.5 -159.5q-51 -55 -63 -88t-12 -90q0 -96 84 -97q41 0 66.5 35t23.5 99l358 10q8 -221 -127 -341t-346 -120 q-184 0 -316.5 104.5t-132.5 288.5zM262 844q0 86 59.5 143t147.5 57q86 0 145.5 -57t59.5 -143q0 -90 -58.5 -147.5t-146.5 -57.5t-147.5 57.5t-59.5 147.5z" />
<glyph unicode="&#xc0;" horiz-adv-x="1243" d="M-10 0l327 1368v86h605l331 -1454h-419l-48 256h-348l-49 -256h-399zM227 1759h389l154 -235h-244zM504 584h223l-78 430l-31 188l-30 -188z" />
<glyph unicode="&#xc1;" horiz-adv-x="1243" d="M-10 0l327 1368v86h605l331 -1454h-419l-48 256h-348l-49 -256h-399zM502 1528l164 235h399l-322 -235h-241zM504 584h223l-78 430l-31 188l-30 -188z" />
<glyph unicode="&#xc2;" horiz-adv-x="1243" d="M-10 0l327 1368v86h605l331 -1454h-419l-48 256h-348l-49 -256h-399zM252 1526l201 235h346l186 -235h-297l-70 108l-79 -108h-287zM504 584h223l-78 430l-31 188l-30 -188z" />
<glyph unicode="&#xc3;" horiz-adv-x="1243" d="M-10 0l327 1368v86h605l331 -1454h-419l-48 256h-348l-49 -256h-399zM318.5 1681.5q-3.5 59.5 43 104.5t132.5 45q68 0 147.5 -39t110.5 -39q12 0 20 7t12 15.5t10.5 27t10.5 26.5l82 -27q33 -57 35 -117.5t-41 -105.5t-127 -45q-53 0 -143.5 39t-114.5 39q-8 0 -14.5 -2 t-11.5 -7l-8 -9q-3 -3 -8 -13l-8 -14q-2 -4 -7 -15.5t-7 -15.5l-82 27q-28 59 -31.5 118.5zM504 584h223l-78 430l-31 188l-30 -188z" />
<glyph unicode="&#xc4;" horiz-adv-x="1243" d="M-10 0l327 1368v86h605l331 -1454h-419l-48 256h-348l-49 -256h-399zM305 1675.5q0 59.5 42 102.5t104 43q57 0 99 -43t42 -102.5t-42 -101.5t-99 -42q-61 0 -103.5 42t-42.5 101.5zM504 584h223l-78 430l-31 188l-30 -188zM664 1675.5q0 59.5 42 102.5t101 43t101 -43 t42 -102.5t-42 -101.5t-101 -42t-101 42t-42 101.5z" />
<glyph unicode="&#xc5;" horiz-adv-x="1269" d="M-4 0l321 1386l13 68h57q6 -8 21.5 -22.5t78 -37t146.5 -22.5q76 0 136 20.5t83 41.5l20 20h76l332 -1454h-410l-53 266h-375l-57 -266h-389zM385 1648.5q0 92.5 68.5 154t175 61.5t175 -61.5t68.5 -154t-68.5 -154.5t-175 -62t-175 62t-68.5 154.5zM512 594h240l-86 440 l-31 189l-31 -189zM567 1648.5q0 -24.5 17.5 -43t44 -18.5t44 18.5t17.5 43t-17.5 43t-44 18.5t-44 -18.5t-17.5 -43z" />
<glyph unicode="&#xc6;" horiz-adv-x="1609" d="M-31 0l488 1454h1071v-338h-387v-215h344v-328h-344v-235h387v-338h-776v246h-287l-76 -246h-420zM565 573h187v601z" />
<glyph unicode="&#xc7;" horiz-adv-x="1146" d="M66 455q-6 385 0 555q8 225 167.5 350t380.5 125q109 0 201 -31t164 -90t111.5 -157.5t35.5 -223.5l-378 -10q0 86 -36 130t-97.5 44t-99.5 -40t-40 -116q-8 -193 0 -516q6 -168 137 -168q59 0 102.5 46t43.5 128l379 -10q0 -225 -144.5 -363.5t-390.5 -138.5 q-238 0 -385 130.5t-151 355.5zM319 -268h195q0 -23 14.5 -41.5t40.5 -18.5q45 0 45 49q0 20 -14 37t-39 17v184q121 0 194.5 -66.5t73.5 -166.5q0 -104 -74.5 -171t-183 -67t-184.5 66.5t-68 177.5z" />
<glyph unicode="&#xc8;" horiz-adv-x="1052" d="M102 0v1454h869v-338h-459v-215h416v-328h-416v-235h459v-338h-869zM152 1761h389l153 -235h-243z" />
<glyph unicode="&#xc9;" horiz-adv-x="1052" d="M102 0v1454h869v-338h-459v-215h416v-328h-416v-235h459v-338h-869zM354 1526l164 235h400l-322 -235h-242z" />
<glyph unicode="&#xca;" horiz-adv-x="1052" d="M102 0v1454h869v-338h-459v-215h416v-328h-416v-235h459v-338h-869zM178 1526l201 235h346l186 -235h-297l-69 108l-80 -108h-287z" />
<glyph unicode="&#xcb;" horiz-adv-x="1052" d="M102 0v1454h869v-338h-459v-215h416v-328h-416v-235h459v-338h-869zM236 1679.5q0 59.5 41.5 102.5t103.5 43q57 0 99 -43t42 -102.5t-42 -101.5t-99 -42q-61 0 -103 42t-42 101.5zM594 1679.5q0 59.5 42 102.5t101.5 43t101.5 -43t42 -102.5t-42 -101.5t-101.5 -42 t-101.5 42t-42 101.5z" />
<glyph unicode="&#xcc;" horiz-adv-x="614" d="M-51 1761h389l154 -235h-244zM102 0v1454h410v-1454h-410z" />
<glyph unicode="&#xcd;" horiz-adv-x="614" d="M102 0v1454h410v-1454h-410zM145 1526l164 235h400l-322 -235h-242z" />
<glyph unicode="&#xce;" horiz-adv-x="614" d="M-63 1526l200 235h346l187 -235h-297l-70 108l-80 -108h-286zM102 0v1454h410v-1454h-410z" />
<glyph unicode="&#xcf;" horiz-adv-x="614" d="M-6 1677.5q0 59.5 42 102.5t103 43q57 0 99.5 -43t42.5 -102.5t-42 -101.5t-100 -42q-61 0 -103 42t-42 101.5zM102 0v1454h410v-1454h-410zM352 1677.5q0 59.5 42 102.5t101.5 43t101.5 -43t42 -102.5t-42 -101.5t-101.5 -42t-101.5 42t-42 101.5z" />
<glyph unicode="&#xd0;" horiz-adv-x="1261" d="M0 584v272l113 2v596q184 10 381 10q645 0 680 -481q25 -330 10 -524q-35 -469 -707 -469l-364 10v580zM512 332q2 -4 51 -4q188 0 203 172q16 197 0 456q-10 170 -197 170l-57 -4v-262l129 -4v-272l-129 -4v-248z" />
<glyph unicode="&#xd1;" horiz-adv-x="1357" d="M102 0v1454h355l360 -676l49 -137v813h389v-1454h-360l-344 598l-59 168v-766h-390zM370 1683.5q-3 59.5 43 104.5t132 45q66 0 147.5 -39t110.5 -39q12 0 20 7t12.5 15.5t10.5 27t10 26.5l82 -27q33 -57 35 -117.5t-41 -105.5t-127 -45q-53 0 -143.5 39t-114.5 39 q-8 0 -14.5 -2t-11.5 -7l-8 -9q-3 -3 -8 -13l-7 -14q-2 -4 -7.5 -15.5t-7.5 -15.5l-82 27q-28 59 -31 118.5z" />
<glyph unicode="&#xd2;" horiz-adv-x="1232" d="M68 471q-10 246 0 514q8 238 162.5 369t388 131t387 -131t161.5 -369q8 -242 0 -518q-6 -238 -161.5 -368t-389 -130t-386 130t-162.5 372zM217 1761h389l154 -235h-244zM471 733q0 -176 6 -272q8 -154 139 -154q133 0 142 154q12 254 0 543q-6 143 -139.5 143 t-141.5 -143q-6 -95 -6 -271z" />
<glyph unicode="&#xd3;" horiz-adv-x="1232" d="M68 471q-10 246 0 514q8 238 162.5 369t388 131t387 -131t161.5 -369q8 -242 0 -518q-6 -238 -161.5 -368t-389 -130t-386 130t-162.5 372zM471 733q0 -176 6 -272q8 -154 139 -154q133 0 142 154q12 254 0 543q-6 143 -139.5 143t-141.5 -143q-6 -95 -6 -271zM471 1526 l164 235h399l-321 -235h-242z" />
<glyph unicode="&#xd4;" horiz-adv-x="1232" d="M68 471q-10 246 0 514q8 238 162.5 369t388 131t387 -131t161.5 -369q8 -242 0 -518q-6 -238 -161.5 -368t-389 -130t-386 130t-162.5 372zM256 1526l201 235h346l186 -235h-297l-69 108l-80 -108h-287zM471 733q0 -176 6 -272q8 -154 139 -154q133 0 142 154 q12 254 0 543q-6 143 -139.5 143t-141.5 -143q-6 -95 -6 -271z" />
<glyph unicode="&#xd5;" horiz-adv-x="1232" d="M68 471q-10 246 0 514q8 238 162.5 369t388 131t387 -131t161.5 -369q8 -242 0 -518q-6 -238 -161.5 -368t-389 -130t-386 130t-162.5 372zM318.5 1681.5q-3.5 59.5 43 104.5t132.5 45q68 0 147.5 -39t110.5 -39q12 0 20 7t12 15.5t10.5 27t10.5 26.5l82 -27 q33 -57 35 -117.5t-41 -105.5t-127 -45q-53 0 -143.5 39t-114.5 39q-8 0 -14.5 -2t-11.5 -7l-8 -9q-3 -3 -8 -13l-8 -14q-2 -4 -7 -15.5t-7 -15.5l-82 27q-28 59 -31.5 118.5zM471 733q0 -176 6 -272q8 -154 139 -154q133 0 142 154q12 254 0 543q-6 143 -139.5 143 t-141.5 -143q-6 -95 -6 -271z" />
<glyph unicode="&#xd6;" horiz-adv-x="1232" d="M68 471q-10 246 0 514q8 238 162.5 369t388 131t387 -131t161.5 -369q8 -242 0 -518q-6 -238 -161.5 -368t-389 -130t-386 130t-162.5 372zM303 1677.5q0 59.5 42 102.5t104 43q57 0 99 -43t42 -102.5t-42 -101.5t-99 -42q-61 0 -103.5 42t-42.5 101.5zM471 733 q0 -176 6 -272q8 -154 139 -154q133 0 142 154q12 254 0 543q-6 143 -139.5 143t-141.5 -143q-6 -95 -6 -271zM662 1677.5q0 59.5 41.5 102.5t101 43t101.5 -43t42 -102.5t-42 -101.5t-101.5 -42t-101 42t-41.5 101.5z" />
<glyph unicode="&#xd7;" horiz-adv-x="1110" d="M51 203l293 289l-287 278l222 231l286 -292l299 295l195 -203l-291 -289l289 -281l-221 -231l-291 297l-293 -297z" />
<glyph unicode="&#xd8;" horiz-adv-x="1263" d="M31 -31l139 203q-90 123 -96 299q-10 246 0 514q8 238 162.5 369t388.5 131q178 0 313 -80l59 80h215l-133 -207q88 -125 95 -293q8 -242 0 -518q-6 -238 -162 -368t-389 -130q-176 0 -312 76l-55 -76h-225zM477 608l266 475q-33 63 -118 64q-133 0 -142 -143 q-10 -142 -6 -396zM514 356q35 -49 109 -49q133 0 141 154q4 72 4 336z" />
<glyph unicode="&#xd9;" horiz-adv-x="1239" d="M86 444v1010h391q-2 -113 -2 -488.5t2 -492.5q2 -78 42 -122t103.5 -44t99.5 44t40 122q2 111 2 484.5t-2 496.5h391q6 -518 0 -1014q-2 -221 -158.5 -346t-380.5 -125q-221 0 -373.5 125t-154.5 350zM207 1761h389l154 -235h-244z" />
<glyph unicode="&#xda;" horiz-adv-x="1239" d="M86 444v1010h391q-2 -113 -2 -488.5t2 -492.5q2 -78 42 -122t103.5 -44t99.5 44t40 122q2 111 2 484.5t-2 496.5h391q6 -518 0 -1014q-2 -221 -158.5 -346t-380.5 -125q-221 0 -373.5 125t-154.5 350zM485 1526l164 235h400l-322 -235h-242z" />
<glyph unicode="&#xdb;" horiz-adv-x="1239" d="M86 444v1010h391q-2 -113 -2 -488.5t2 -492.5q2 -78 42 -122t103.5 -44t99.5 44t40 122q2 111 2 484.5t-2 496.5h391q6 -518 0 -1014q-2 -221 -158.5 -346t-380.5 -125q-221 0 -373.5 125t-154.5 350zM256 1526l201 235h346l186 -235h-297l-69 108l-80 -108h-287z" />
<glyph unicode="&#xdc;" horiz-adv-x="1239" d="M86 444v1010h391q-2 -113 -2 -488.5t2 -492.5q2 -78 42 -122t103.5 -44t99.5 44t40 122q2 111 2 484.5t-2 496.5h391q6 -518 0 -1014q-2 -221 -158.5 -346t-380.5 -125q-221 0 -373.5 125t-154.5 350zM309 1679.5q0 59.5 42 102.5t104 43q57 0 99 -43t42 -102.5 t-42 -101.5t-99 -42q-61 0 -103.5 42t-42.5 101.5zM668 1679.5q0 59.5 42 102.5t101 43t101 -43t42 -102.5t-42 -101.5t-101 -42t-101 42t-42 101.5z" />
<glyph unicode="&#xdd;" horiz-adv-x="1189" d="M-41 1454h434l164 -420l43 -141l45 141l170 420h416l-436 -913v-541h-410v543zM467 1526l164 235h399l-321 -235h-242z" />
<glyph unicode="&#xde;" horiz-adv-x="1198" d="M102 0v1454h410v-205h154q254 0 393 -146.5t139 -346.5q0 -199 -133 -344.5t-371 -145.5h-182v-266h-410zM512 594h111q80 0 122.5 44t42.5 120q0 154 -170 153h-106v-317z" />
<glyph unicode="&#xdf;" horiz-adv-x="1159" d="M92 0v1081q0 215 153.5 335t366.5 120q193 0 323 -97.5t130 -275.5q0 -82 -25.5 -119.5t-103.5 -91.5q-119 -80 -229 -135q154 29 272.5 -51t126.5 -254q4 -82 0 -176q-6 -168 -117.5 -257t-298.5 -89q-68 0 -143 12v258q20 -4 74 -4q113 0 116 82q4 78 0 147 q-2 53 -57 79t-113 14v366q92 74 115 98.5t23 63.5q0 133 -113 133q-59 0 -95 -36t-36 -95v-1108h-369z" />
<glyph unicode="&#xe0;" d="M61 281q0 102 50.5 162.5t164.5 93.5q137 41 287 69v70q0 72 -55 72q-31 0 -49.5 -20.5t-12.5 -61.5l-337 -11q-14 178 100.5 283.5t312.5 105.5q180 0 295 -95t115 -271v-324q0 -61 19.5 -79.5t86.5 -18.5v-256q-55 -20 -124.5 -26.5t-153.5 24.5t-123 106h-4 q-100 -135 -271 -135q-129 0 -215 88.5t-86 223.5zM150 1454h378l164 -297h-243zM430 334q0 -78 68 -78q29 0 47 18.5t18 51.5v118q-45 -10 -80 -22q-53 -18 -53 -88z" />
<glyph unicode="&#xe1;" d="M61 281q0 102 50.5 162.5t164.5 93.5q137 41 287 69v70q0 72 -55 72q-31 0 -49.5 -20.5t-12.5 -61.5l-337 -11q-14 178 100.5 283.5t312.5 105.5q180 0 295 -95t115 -271v-324q0 -61 19.5 -79.5t86.5 -18.5v-256q-55 -20 -124.5 -26.5t-153.5 24.5t-123 106h-4 q-100 -135 -271 -135q-129 0 -215 88.5t-86 223.5zM352 1157l154 297h409l-321 -297h-242zM430 334q0 -78 68 -78q29 0 47 18.5t18 51.5v118q-45 -10 -80 -22q-53 -18 -53 -88z" />
<glyph unicode="&#xe2;" d="M61 281q0 102 50.5 162.5t164.5 93.5q137 41 287 69v70q0 72 -55 72q-31 0 -49.5 -20.5t-12.5 -61.5l-337 -11q-14 178 100.5 283.5t312.5 105.5q180 0 295 -95t115 -271v-324q0 -61 19.5 -79.5t86.5 -18.5v-256q-55 -20 -124.5 -26.5t-153.5 24.5t-123 106h-4 q-100 -135 -271 -135q-129 0 -215 88.5t-86 223.5zM104 1116l242 297h326l227 -297h-307l-90 129l-101 -129h-297zM430 334q0 -78 68 -78q29 0 47 18.5t18 51.5v118q-45 -10 -80 -22q-53 -18 -53 -88z" />
<glyph unicode="&#xe3;" d="M61 281q0 102 50.5 162.5t164.5 93.5q137 41 287 69v70q0 72 -55 72q-31 0 -49.5 -20.5t-12.5 -61.5l-337 -11q-14 178 100.5 283.5t312.5 105.5q180 0 295 -95t115 -271v-324q0 -61 19.5 -79.5t86.5 -18.5v-256q-55 -20 -124.5 -26.5t-153.5 24.5t-123 106h-4 q-100 -135 -271 -135q-129 0 -215 88.5t-86 223.5zM179 1309.5q-1 66.5 46 117t127 50.5t181.5 -44t128.5 -44q16 0 24 11t16.5 38.5t12.5 36.5l82 -27q29 -66 31.5 -132.5t-41.5 -116.5t-123 -50q-68 0 -177.5 44t-132.5 44q-10 0 -18 -5t-14.5 -15.5t-10.5 -18.5 t-11 -24.5t-9 -22.5l-82 27q-29 65 -30 131.5zM430 334q0 -78 68 -78q29 0 47 18.5t18 51.5v118q-45 -10 -80 -22q-53 -18 -53 -88z" />
<glyph unicode="&#xe4;" d="M61 281q0 102 50.5 162.5t164.5 93.5q137 41 287 69v70q0 72 -55 72q-31 0 -49.5 -20.5t-12.5 -61.5l-337 -11q-14 178 100.5 283.5t312.5 105.5q180 0 295 -95t115 -271v-324q0 -61 19.5 -79.5t86.5 -18.5v-256q-55 -20 -124.5 -26.5t-153.5 24.5t-123 106h-4 q-100 -135 -271 -135q-129 0 -215 88.5t-86 223.5zM152 1300.5q0 63.5 45 109.5t110 46q63 0 108.5 -46t45.5 -109.5t-45 -108.5t-108.5 -45t-109.5 45t-46 108.5zM430 334q0 -78 68 -78q29 0 47 18.5t18 51.5v118q-45 -10 -80 -22q-53 -18 -53 -88zM555 1300.5 q0 63.5 46 109.5t109.5 46t108.5 -46t45 -109.5t-45 -108.5t-108.5 -45t-109.5 45t-46 108.5z" />
<glyph unicode="&#xe5;" d="M61 281q0 102 50.5 162.5t164.5 93.5q137 41 287 69v70q0 72 -55 72q-31 0 -49.5 -20.5t-12.5 -61.5l-337 -11q-14 178 100.5 283.5t312.5 105.5q180 0 295 -95t115 -271v-324q0 -61 19.5 -79.5t86.5 -18.5v-256q-55 -20 -124.5 -26.5t-153.5 24.5t-123 106h-4 q-100 -135 -271 -135q-129 0 -215 88.5t-86 223.5zM264 1321q0 92 68.5 153.5t175 61.5t175.5 -61.5t69 -153.5t-69 -154.5t-175.5 -62.5t-175 62.5t-68.5 154.5zM430 334q0 -78 68 -78q29 0 47 18.5t18 51.5v118q-45 -10 -80 -22q-53 -18 -53 -88zM446 1321q0 -25 17.5 -43 t44.5 -18t44 18t17 43t-17 43t-44 18t-44.5 -18t-17.5 -43z" />
<glyph unicode="&#xe6;" horiz-adv-x="1476" d="M61 281q0 104 50.5 164.5t164.5 91.5q61 16 133 30.5t113 20.5l41 6v82q0 72 -55 72q-31 0 -49.5 -20.5t-12.5 -61.5l-337 -11q-14 178 100.5 283.5t312.5 105.5q145 0 246 -63q102 63 242 63q176 0 295.5 -94t119.5 -264q0 -102 -51 -142t-176 -71t-272 -45v-76 q0 -53 35.5 -74.5t73.5 -2t40 72.5l338 -10q-6 -168 -121.5 -268.5t-292.5 -100.5q-229 0 -337 146q-98 -145 -300 -146q-129 0 -215 88.5t-86 223.5zM430 334q0 -78 68 -78q29 0 47 18.5t18 51.5v116q-45 -8 -80 -20q-53 -18 -53 -88zM926 588q35 2 69 10q37 8 49.5 22.5 t12.5 51.5q0 76 -64 76q-68 0 -67 -72v-88z" />
<glyph unicode="&#xe7;" horiz-adv-x="958" d="M65.5 352q-6.5 180 0.5 328q8 168 134 266t308 98q201 0 309.5 -104t93.5 -285l-338 -10q6 45 -12 74t-53 29q-72 0 -74 -82q-6 -152 0 -314q2 -39 24.5 -62.5t51.5 -23.5q37 0 55.5 25.5t14.5 66.5l338 -10q-4 -164 -114 -271.5t-294 -107.5q-195 0 -316.5 101.5 t-128 281.5zM231 -268h195q0 -23 14.5 -41.5t40.5 -18.5q45 0 45 49q0 20 -14 37t-39 17v184q121 0 194.5 -66.5t73.5 -166.5q0 -104 -74.5 -171t-183 -67t-184.5 66.5t-68 177.5z" />
<glyph unicode="&#xe8;" horiz-adv-x="983" d="M66 352q-6 143 0 297q6 176 134 285.5t316 109.5q178 0 297 -94t119 -268q0 -102 -51.5 -147.5t-175.5 -71.5l-273 -47v-64q0 -39 19.5 -62.5t54.5 -23.5q33 0 53.5 21.5t22.5 60.5l338 -10q-6 -168 -122 -268.5t-292 -100.5q-182 0 -307 98.5t-133 284.5zM86 1454h379 l164 -297h-244zM432 578q35 2 70 10q37 8 49 23.5t12 60.5q0 76 -63 76q-68 0 -68 -72v-98z" />
<glyph unicode="&#xe9;" horiz-adv-x="983" d="M66 352q-6 143 0 297q6 176 134 285.5t316 109.5q178 0 297 -94t119 -268q0 -102 -51.5 -147.5t-175.5 -71.5l-273 -47v-64q0 -39 19.5 -62.5t54.5 -23.5q33 0 53.5 21.5t22.5 60.5l338 -10q-6 -168 -122 -268.5t-292 -100.5q-182 0 -307 98.5t-133 284.5zM326 1157 l153 297h410l-322 -297h-241zM432 578q35 2 70 10q37 8 49 23.5t12 60.5q0 76 -63 76q-68 0 -68 -72v-98z" />
<glyph unicode="&#xea;" horiz-adv-x="983" d="M66 352q-6 143 0 297q6 176 134 285.5t316 109.5q178 0 297 -94t119 -268q0 -102 -51.5 -147.5t-175.5 -71.5l-273 -47v-64q0 -39 19.5 -62.5t54.5 -23.5q33 0 53.5 21.5t22.5 60.5l338 -10q-6 -168 -122 -268.5t-292 -100.5q-182 0 -307 98.5t-133 284.5zM96 1116 l242 297h326l227 -297h-307l-90 129l-101 -129h-297zM432 578q35 2 70 10q37 8 49 23.5t12 60.5q0 76 -63 76q-68 0 -68 -72v-98z" />
<glyph unicode="&#xeb;" horiz-adv-x="983" d="M66 352q-6 143 0 297q6 176 134 285.5t316 109.5q178 0 297 -94t119 -268q0 -102 -51.5 -147.5t-175.5 -71.5l-273 -47v-64q0 -39 19.5 -62.5t54.5 -23.5q33 0 53.5 21.5t22.5 60.5l338 -10q-6 -168 -122 -268.5t-292 -100.5q-182 0 -307 98.5t-133 284.5zM141 1280 q0 63 46 109.5t109.5 46.5t109 -46.5t45.5 -109.5t-45.5 -108.5t-109 -45.5t-109.5 45.5t-46 108.5zM432 578q35 2 70 10q37 8 49 23.5t12 60.5q0 76 -63 76q-68 0 -68 -72v-98zM545 1280q0 63 45 109.5t110 46.5q63 0 108.5 -46.5t45.5 -109.5t-45 -108.5t-108.5 -45.5 t-109.5 45.5t-46 108.5z" />
<glyph unicode="&#xec;" horiz-adv-x="600" d="M-100 1454h379l163 -297h-243zM82 281v680l369 63v-678q0 -55 29.5 -72.5t88.5 -17.5v-256q-82 -18 -155.5 -19t-154.5 18t-129 91t-48 191z" />
<glyph unicode="&#xed;" horiz-adv-x="600" d="M82 281v680l369 63v-678q0 -55 29.5 -72.5t88.5 -17.5v-256q-82 -18 -155.5 -19t-154.5 18t-129 91t-48 191zM113 1157l153 297h410l-322 -297h-241z" />
<glyph unicode="&#xee;" horiz-adv-x="600" d="M-121 1116l242 297h325l228 -297h-307l-91 129l-100 -129h-297zM82 281v680l369 63v-678q0 -55 29.5 -72.5t88.5 -17.5v-256q-82 -18 -155.5 -19t-154.5 18t-129 91t-48 191z" />
<glyph unicode="&#xef;" horiz-adv-x="600" d="M-74 1280q0 63 45 109.5t111 46.5q63 0 108.5 -46.5t45.5 -109.5t-45.5 -108.5t-109 -45.5t-109.5 45.5t-46 108.5zM82 281v680l369 63v-678q0 -55 29.5 -72.5t88.5 -17.5v-256q-82 -18 -155.5 -19t-154.5 18t-129 91t-48 191zM330 1280q0 63 46 109.5t109.5 46.5 t108.5 -46.5t45 -109.5t-45 -108.5t-108.5 -45.5t-109.5 45.5t-46 108.5z" />
<glyph unicode="&#xf0;" horiz-adv-x="1038" d="M63 1118l291 187q-104 94 -243 151l229 60q106 -14 217 -80l125 80h272l-268 -175q266 -244 266 -675q6 -160 0 -349q-6 -162 -133 -255t-313 -93q-184 0 -308 90.5t-132 249.5q-6 115 0 301q6 178 103 270.5t234 92.5q102 0 164 -41q-33 150 -112 262l-117 -76h-275z M434 326q2 -37 24.5 -58.5t51.5 -21.5q27 0 49.5 21.5t24.5 58.5q8 160 2 292q-2 37 -22.5 57.5t-51.5 20.5q-74 0 -78 -78q-6 -145 0 -292z" />
<glyph unicode="&#xf1;" horiz-adv-x="1095" d="M20 758v246q68 31 150 30q178 0 262 -133h4q90 143 275 143q139 0 226 -90t87 -276v-678h-369v668q0 80 -71 80q-45 0 -67.5 -30t-24.5 -59v-659h-369v651q0 59 -23 83t-80 24zM228 1309.5q-1 66.5 46.5 117t127 50.5t181 -44t128.5 -44q16 0 24 11t16.5 38.5t12.5 36.5 l82 -27q29 -66 32 -132.5t-41 -116.5t-124 -50q-68 0 -177.5 44t-132.5 44q-10 0 -18 -5t-14 -15.5t-10.5 -18.5t-11.5 -24.5t-9 -22.5l-82 27q-29 65 -30 131.5z" />
<glyph unicode="&#xf2;" horiz-adv-x="1017" d="M66 338q-6 162 0 336q6 166 132 268t312 102t310 -102t132 -268q6 -156 0 -338q-6 -166 -130 -266.5t-312 -100.5t-312 100.5t-132 268.5zM84 1454h379l164 -297h-244zM434 354q2 -39 23.5 -63.5t52.5 -24.5t51.5 24.5t22.5 63.5q6 145 0 310q-2 35 -22.5 59.5 t-51.5 24.5t-52.5 -25t-23.5 -59q-6 -154 0 -310z" />
<glyph unicode="&#xf3;" horiz-adv-x="1017" d="M66 338q-6 162 0 336q6 166 132 268t312 102t310 -102t132 -268q6 -156 0 -338q-6 -166 -130 -266.5t-312 -100.5t-312 100.5t-132 268.5zM377 1159l153 297h410l-322 -297h-241zM434 354q2 -39 23.5 -63.5t52.5 -24.5t51.5 24.5t22.5 63.5q6 145 0 310q-2 35 -22.5 59.5 t-51.5 24.5t-52.5 -25t-23.5 -59q-6 -154 0 -310z" />
<glyph unicode="&#xf4;" horiz-adv-x="1017" d="M66 338q-6 162 0 336q6 166 132 268t312 102t310 -102t132 -268q6 -156 0 -338q-6 -166 -130 -266.5t-312 -100.5t-312 100.5t-132 268.5zM115 1116l241 297h326l227 -297h-307l-90 129l-100 -129h-297zM434 354q2 -39 23.5 -63.5t52.5 -24.5t51.5 24.5t22.5 63.5 q6 145 0 310q-2 35 -22.5 59.5t-51.5 24.5t-52.5 -25t-23.5 -59q-6 -154 0 -310z" />
<glyph unicode="&#xf5;" horiz-adv-x="1017" d="M66 338q-6 162 0 336q6 166 132 268t312 102t310 -102t132 -268q6 -156 0 -338q-6 -166 -130 -266.5t-312 -100.5t-312 100.5t-132 268.5zM185 1309.5q-1 66.5 46.5 117t127 50.5t181 -44t128.5 -44q16 0 24 11t16.5 38.5t12.5 36.5l82 -27q29 -66 32 -132.5t-41 -116.5 t-124 -50q-68 0 -177.5 44t-132.5 44q-10 0 -18 -5t-14 -15.5t-10.5 -18.5t-11.5 -24.5t-9 -22.5l-82 27q-29 65 -30 131.5zM434 354q2 -39 23.5 -63.5t52.5 -24.5t51.5 24.5t22.5 63.5q6 145 0 310q-2 35 -22.5 59.5t-51.5 24.5t-52.5 -25t-23.5 -59q-6 -154 0 -310z" />
<glyph unicode="&#xf6;" horiz-adv-x="1017" d="M66 338q-6 162 0 336q6 166 132 268t312 102t310 -102t132 -268q6 -156 0 -338q-6 -166 -130 -266.5t-312 -100.5t-312 100.5t-132 268.5zM154 1280q0 63 46 109.5t109.5 46.5t108.5 -46.5t45 -109.5t-45 -108.5t-108.5 -45.5t-109.5 45.5t-46 108.5zM434 354 q2 -39 23.5 -63.5t52.5 -24.5t51.5 24.5t22.5 63.5q6 145 0 310q-2 35 -22.5 59.5t-51.5 24.5t-52.5 -25t-23.5 -59q-6 -154 0 -310zM557 1280q0 63 45 109.5t111 46.5q63 0 108 -46.5t45 -109.5t-45 -108.5t-108.5 -45.5t-109.5 45.5t-46 108.5z" />
<glyph unicode="&#xf7;" horiz-adv-x="1048" d="M51 369v297h946v-297h-946zM328 113q0 88 55 144t137 56t138.5 -56t56.5 -144q0 -84 -56.5 -139.5t-138.5 -55.5q-80 0 -136 55.5t-56 139.5zM330 915q0 88 55 144.5t137 56.5t138.5 -56t56.5 -145q0 -84 -56.5 -139t-138.5 -55q-80 0 -136 55t-56 139z" />
<glyph unicode="&#xf8;" horiz-adv-x="1038" d="M76 -31l90 140q-84 94 -90 229q-6 162 0 336q6 166 132 268t312 102q133 0 236 -53l37 53h194l-104 -155q74 -90 80 -215q6 -156 0 -338q-6 -166 -130 -266.5t-313 -100.5q-115 0 -221 43l-29 -43h-194zM440 473l138 240q-20 35 -58 35q-31 0 -52.5 -25t-23.5 -59 q-4 -115 -4 -191zM469 287q20 -20 51 -20.5t51.5 24t22.5 63.5q2 45 2 160z" />
<glyph unicode="&#xf9;" horiz-adv-x="1099" d="M72 358v605l368 61v-653q0 -104 76 -105q37 0 57.5 23.5t20.5 62.5v613l369 59v-670q0 -61 19 -79.5t87 -18.5v-256q-96 -39 -224 -15.5t-194 113.5q-12 -20 -30.5 -42.5t-81 -54.5t-140.5 -32q-150 0 -238.5 97t-88.5 292zM174 1454h379l164 -297h-244z" />
<glyph unicode="&#xfa;" horiz-adv-x="1099" d="M72 358v605l368 61v-653q0 -104 76 -105q72 0 78 74v625l369 59v-670q0 -61 19 -79.5t87 -18.5v-256q-96 -39 -224 -15.5t-194 113.5q-12 -20 -30.5 -42.5t-81 -54.5t-140.5 -32q-150 0 -238.5 97t-88.5 292zM367 1157l153 297h410l-322 -297h-241z" />
<glyph unicode="&#xfb;" horiz-adv-x="1099" d="M72 358v605l368 61v-653q0 -104 76 -105q33 0 53.5 21.5t24.5 56.5v621l369 59v-670q0 -61 19 -79.5t87 -18.5v-256q-96 -39 -224 -15.5t-194 113.5q-12 -20 -30.5 -42.5t-81 -54.5t-140.5 -32q-150 0 -238.5 97t-88.5 292zM119 1116l241 297h326l227 -297h-307l-90 129 l-100 -129h-297z" />
<glyph unicode="&#xfc;" horiz-adv-x="1099" d="M72 358v605l368 61v-653q0 -104 76 -105q33 0 53.5 21.5t24.5 56.5v621l369 59v-670q0 -61 19 -79.5t87 -18.5v-256q-96 -39 -224 -15.5t-194 113.5q-12 -20 -30.5 -42.5t-81 -54.5t-140.5 -32q-150 0 -238.5 97t-88.5 292zM164 1280q0 63 45 109.5t110 46.5 q63 0 108.5 -46.5t45.5 -109.5t-45 -108.5t-108.5 -45.5t-109.5 45.5t-46 108.5zM567 1280q0 63 46 109.5t109.5 46.5t109 -46.5t45.5 -109.5t-45.5 -108.5t-109 -45.5t-109.5 45.5t-46 108.5z" />
<glyph unicode="&#xfd;" horiz-adv-x="985" d="M-10 1014h389l84 -461l29 -180h4l34 180l97 461h368l-483 -1526h-369l170 522zM326 1157l153 297h410l-322 -297h-241z" />
<glyph unicode="&#xfe;" horiz-adv-x="1052" d="M92 -512v1987l369 61v-584q8 10 24.5 25.5t76 41t128.5 25.5q129 0 211 -81.5t86 -225.5q6 -188 0 -393q-6 -186 -105.5 -280.5t-260.5 -94.5l-160 33v-514h-369zM461 350q0 -41 21.5 -62.5t56.5 -21.5q37 0 58 23.5t21 58.5q2 150 0 322q0 78 -69 78q-39 0 -62.5 -25 t-25.5 -64v-309z" />
<glyph unicode="&#xff;" horiz-adv-x="985" d="M-10 1014h389l84 -461l29 -180h4l34 180l97 461h368l-483 -1526h-369l170 522zM143 1280q0 63 45 109.5t111 46.5q63 0 108.5 -46.5t45.5 -109.5t-45.5 -108.5t-108.5 -45.5t-109.5 45.5t-46.5 108.5zM547 1280q0 63 46 109.5t109.5 46.5t108.5 -46.5t45 -109.5 t-45 -108.5t-108.5 -45.5t-109.5 45.5t-46 108.5z" />
<glyph unicode="&#x152;" horiz-adv-x="1667" d="M68 471q-10 246 0 514q8 238 162.5 369t387.5 131q111 0 197 -31h770v-338h-469v-215h426v-328h-426v-235h469v-338h-772q-86 -31 -197 -31q-233 0 -385.5 130t-162.5 372zM471 733q0 -176 6 -272q8 -154 139 -154q82 0 111 31v776q-33 33 -109 33q-133 0 -141 -143 q-6 -95 -6 -271z" />
<glyph unicode="&#x153;" horiz-adv-x="1507" d="M66 338q-6 162 0 336q6 166 132 268t312 102q154 0 266 -71q117 72 264 71q178 0 297 -94t119 -268q0 -102 -51 -147.5t-176 -71.5l-273 -47v-64q0 -39 19.5 -62.5t54.5 -23.5q33 0 53.5 21.5t22.5 60.5l338 -10q-6 -168 -122 -268.5t-292 -100.5q-152 0 -260 64 q-115 -63 -260 -64q-188 0 -312 100.5t-132 268.5zM434 354q2 -39 23.5 -63.5t52.5 -24.5t51.5 24.5t22.5 63.5q6 145 0 310q-2 35 -22.5 59.5t-51.5 24.5t-52.5 -25t-23.5 -59q-6 -154 0 -310zM956 578q35 2 70 10q37 8 49 23.5t12 60.5q0 76 -63 76q-68 0 -68 -72v-98z " />
<glyph unicode="&#x178;" horiz-adv-x="1189" d="M-41 1454h434l164 -420l43 -141l45 141l170 420h416l-436 -913v-541h-410v543zM246 1689.5q0 63.5 45 109.5t110 46q63 0 108.5 -46t45.5 -109.5t-45 -108.5t-108.5 -45t-109.5 45t-46 108.5zM649 1689.5q0 63.5 46 109.5t109.5 46t108.5 -46t45 -109.5t-45 -108.5 t-108.5 -45t-109.5 45t-46 108.5z" />
<glyph unicode="&#x2c6;" horiz-adv-x="815" d="M10 1157l242 297h326l227 -297h-307l-90 129l-101 -129h-297z" />
<glyph unicode="&#x2dc;" horiz-adv-x="856" d="M103 1350.5q-1 66.5 46.5 117t127 50.5t181 -44t128.5 -44q16 0 24 11t16.5 38.5t12.5 36.5l82 -27q29 -66 32 -132.5t-41 -116.5t-124 -50q-68 0 -177.5 44t-131.5 44q-10 0 -18.5 -5t-14.5 -15.5t-10.5 -18.5t-11.5 -24.5t-9 -22.5l-82 27q-29 65 -30 131.5z" />
<glyph unicode="&#x3bc;" horiz-adv-x="1099" d="M72 -512v1475l368 61v-653q0 -104 76 -105q33 0 53.5 21.5t24.5 56.5v621l369 59v-670q0 -61 19 -79.5t87 -18.5v-256q-96 -39 -224 -15.5t-194 113.5q-12 -20 -30.5 -42.5t-81 -54.5t-140.5 -32h-14q55 -100 55 -237v-244h-368z" />
<glyph unicode="&#x2000;" horiz-adv-x="931" />
<glyph unicode="&#x2001;" horiz-adv-x="1863" />
<glyph unicode="&#x2002;" horiz-adv-x="931" />
<glyph unicode="&#x2003;" horiz-adv-x="1863" />
<glyph unicode="&#x2004;" horiz-adv-x="620" />
<glyph unicode="&#x2005;" horiz-adv-x="464" />
<glyph unicode="&#x2006;" horiz-adv-x="309" />
<glyph unicode="&#x2007;" horiz-adv-x="309" />
<glyph unicode="&#x2008;" horiz-adv-x="231" />
<glyph unicode="&#x2009;" horiz-adv-x="372" />
<glyph unicode="&#x200a;" horiz-adv-x="102" />
<glyph unicode="&#x2010;" horiz-adv-x="579" d="M31 369v297h518v-297h-518z" />
<glyph unicode="&#x2011;" horiz-adv-x="579" d="M31 369v297h518v-297h-518z" />
<glyph unicode="&#x2012;" horiz-adv-x="579" d="M31 369v297h518v-297h-518z" />
<glyph unicode="&#x2013;" horiz-adv-x="966" d="M31 369v297h905v-297h-905z" />
<glyph unicode="&#x2014;" horiz-adv-x="1200" d="M31 369v297h1138v-297h-1138z" />
<glyph unicode="&#x2018;" horiz-adv-x="512" d="M51 1026q0 115 42 205t107.5 141t129 79t123.5 34l69 -105q-182 -51 -221 -180l-6 -29q78 -4 130 -60t52 -144q0 -90 -61.5 -143.5t-141.5 -53.5q-104 0 -163.5 71.5t-59.5 184.5z" />
<glyph unicode="&#x2019;" horiz-adv-x="512" d="M10 885q182 51 221 180l7 29q-78 4 -130.5 60t-52.5 144q0 90 61.5 143.5t141.5 53.5q104 0 163.5 -71.5t59.5 -184.5q0 -115 -42 -205t-107.5 -141t-129 -79t-122.5 -34z" />
<glyph unicode="&#x201a;" horiz-adv-x="487" d="M-10 -242q182 51 221 181l6 28q-78 4 -130 60.5t-52 144.5q0 90 61.5 143.5t141.5 53.5q104 0 163.5 -72t59.5 -184q0 -115 -42 -205t-107.5 -141.5t-129 -79t-123.5 -33.5z" />
<glyph unicode="&#x201c;" horiz-adv-x="968" d="M51 1026q0 115 42 205t107.5 141t129 79t123.5 34l69 -105q-182 -51 -221 -180l-6 -29q78 -4 130 -60t52 -144q0 -90 -61.5 -143.5t-141.5 -53.5q-104 0 -163.5 71.5t-59.5 184.5zM508 1026q0 115 42 205t107.5 141t129 79t122.5 34l70 -105q-182 -51 -221 -180l-6 -29 q78 -4 130 -60t52 -144q0 -90 -61.5 -143.5t-141.5 -53.5q-104 0 -163.5 71.5t-59.5 184.5z" />
<glyph unicode="&#x201d;" horiz-adv-x="970" d="M10 887q182 51 221 180l7 29q-78 4 -130.5 60t-52.5 144q0 90 61.5 143.5t141.5 53.5q104 0 163.5 -71.5t59.5 -184.5q0 -115 -42 -205t-107.5 -141t-129 -79t-122.5 -34zM469 887q182 51 221 180l6 29q-78 4 -130 60t-52 144q0 90 61.5 143.5t141.5 53.5 q104 0 163.5 -71.5t59.5 -184.5q0 -115 -42 -205t-107.5 -141t-129 -79t-122.5 -34z" />
<glyph unicode="&#x201e;" horiz-adv-x="950" d="M-10 -242q182 51 221 181l6 28q-78 4 -130 60.5t-52 144.5q0 90 61.5 143.5t141.5 53.5q104 0 163.5 -72t59.5 -184q0 -115 -42 -205t-107.5 -141.5t-129 -79t-123.5 -33.5zM453 -242q182 51 221 181l6 28q-78 4 -130 60.5t-52 144.5q0 90 61.5 143.5t140.5 53.5 q104 0 164 -72t60 -184q0 -115 -42 -205t-107.5 -141.5t-129 -79t-123.5 -33.5z" />
<glyph unicode="&#x2022;" horiz-adv-x="833" d="M102 614q0 131 92.5 224.5t219.5 93.5q129 0 223 -93.5t94 -224.5q0 -125 -94 -216t-223 -91q-127 0 -219.5 91t-92.5 216z" />
<glyph unicode="&#x2026;" horiz-adv-x="1597" d="M51 164q0 94 57.5 152.5t145.5 58.5t146.5 -58.5t58.5 -152.5q0 -90 -58.5 -147.5t-146.5 -57.5q-86 0 -144.5 57.5t-58.5 147.5zM598 164q0 94 57.5 152.5t145.5 58.5t146.5 -58.5t58.5 -152.5q0 -90 -58.5 -147.5t-146.5 -57.5q-86 0 -144.5 57.5t-58.5 147.5z M1139 164q0 94 57 152.5t145.5 58.5t146.5 -58.5t58 -152.5q0 -90 -58 -147.5t-147 -57.5q-86 0 -144 57.5t-58 147.5z" />
<glyph unicode="&#x202f;" horiz-adv-x="372" />
<glyph unicode="&#x2039;" horiz-adv-x="669" d="M31 537v43l461 426l167 -185l-264 -235v-39l258 -279l-174 -180z" />
<glyph unicode="&#x203a;" horiz-adv-x="669" d="M10 842l189 194l440 -461v-43l-428 -475l-195 191l252 291v39z" />
<glyph unicode="&#x205f;" horiz-adv-x="464" />
<glyph unicode="&#x20ac;" horiz-adv-x="1216" d="M0 485l51 195h129v72h-168l51 194h117l4 64q8 221 153.5 348t354.5 127q137 0 241.5 -46t169 -155.5t60.5 -269.5l-358 -10q0 143 -112.5 143t-119.5 -156q-2 -14 -2 -45h355l-49 -194h-308v-72h293l-51 -195h-238v-10q6 -168 117 -168q55 0 85 39t30 105l358 -11 q0 -219 -127 -345t-356 -126q-225 0 -357.5 131t-138.5 355q0 4 -1 14t-1 16h-182z" />
<glyph unicode="&#x2122;" horiz-adv-x="1662" d="M20 1219v235h685v-235h-199v-512h-287v512h-199zM764 707v747h217l188 -276l189 276h223v-747h-287v329l-2 2l-114 -170h-35l-113 174v-335h-266z" />
<glyph unicode="&#xe000;" horiz-adv-x="1014" d="M0 1015h1015v-1015h-1015v1015z" />
<glyph unicode="&#xfb01;" horiz-adv-x="1259" d="M0 758v256h113v137q0 178 113.5 281.5t281.5 103.5q121 0 205 -39q-57 -78 -58 -158q0 -41 8.5 -70.5t16.5 -39.5l8 -10q-45 10 -98 10q-45 0 -77 -24.5t-32 -74.5v-116h629v-668q0 -55 29.5 -72.5t89.5 -17.5v-256q-82 -18 -156 -19t-154.5 18t-129 91t-48.5 191v477 h-260v-758h-368v758h-113zM715 1333q0 88 60.5 145.5t148.5 57.5q90 0 150.5 -56.5t60.5 -146.5q0 -86 -61.5 -141t-149.5 -55t-148.5 56t-60.5 140z" />
<glyph unicode="&#xfb02;" horiz-adv-x="1273" d="M10 758v256h113v86q0 195 127 315.5t309 120.5q147 0 248 -53l317 53v-1190q0 -55 30 -72.5t89 -17.5v-256q-82 -18 -155.5 -19t-154.5 18t-129 91t-48 191v927l-2 -8q-51 29 -123 29q-61 0 -100 -34t-39 -105v-76h155v-256h-155v-758h-369v758h-113z" />
<glyph unicode="&#xfb03;" horiz-adv-x="1935" d="M0 758v256h113v127q0 178 113.5 281.5t281.5 103.5q135 0 244 -62l-68 -256q-41 10 -94 11q-45 0 -77 -25t-32 -74v-106h307v137q0 178 114 281.5t282 103.5q121 0 205 -39q-57 -78 -58 -158q0 -41 8.5 -70.5t16.5 -39.5l8 -10q-45 10 -98 10q-45 0 -77 -24.5t-32 -74.5 v-116h629v-668q0 -55 29.5 -72.5t89.5 -17.5v-256q-82 -18 -156 -19t-155 18t-129 91t-48 191v477h-260v-758h-369v758h-307v-758h-368v758h-113zM1391 1333q0 88 60 145.5t148 57.5q90 0 150.5 -56.5t60.5 -146.5q0 -86 -61 -141t-149.5 -55t-148.5 56t-60 140z" />
<glyph unicode="&#xfb04;" horiz-adv-x="1937" d="M0 758v256h113v127q0 178 113.5 281.5t281.5 103.5q139 0 233 -62l-57 -256q-41 10 -94 11q-45 0 -77 -25t-32 -74v-106h307v86q0 195 127 315.5t310 120.5q147 0 248 -53l315 53v-1190q0 -55 29.5 -72.5t89.5 -17.5v-256q-82 -18 -156 -19t-154.5 18t-129 91t-48.5 191 v919q-51 29 -123 29q-61 0 -100 -34t-39 -105v-76h156v-256h-156v-758h-369v758h-307v-758h-368v758h-113z" />
</font>
</defs>
</svg>
